Людина майбутнього (Сезон 2) / Future Man (Season 2) (2019)

Нові коментарі

Нова тема   Відповісти
Автор Повідомлення
DniproFilm 
VIP


З нами з: 10.10.18
Востаннє: 17.08.19
Повідомлень: 258

2019-01-11 23:40  
Людина майбутнього (Сезон 2) / Future Man (Season 2) (2019)

Людина майбутнього (Сезон 2) / Future Man (Season 2) (2019)


Жанр: бойовик, комедія, фантастика
Країна: США



Кінокомпанія / телеканал: Sony Pictures Television, Point Grey Pictures
Режисер: Еван Голдберг, Сет Роген
Актори/ролі озвучують: Джош Гатчерсон, Гейлі Джоел Осмент, Еліза Куп, Гленн Гедлі, Ед Беглі мол., Дерек Вілсон та інші

Сюжет:
Захоплююча суміш наукової фантастики, бойовика та комедії, що пародіює ідеї культових екшнів Джеймса Камерона «Термінатор» та «Термінатор 2».
Головний герой - такий собі гік та лузер Джош Футармайн, який працює прибиральником, живе з батьками і весь вільний час грає в улюблену комп'ютерну гру «Біотичні війни». Але раптово, його життя різко змінюється і він виявляється у вирі фантастичних подій і пригод. Доля людства тепер залежить від того як невдаха впорається зі своєю місією…


Тривалість: 1 серія: ~ 30 хв. (цілком серій: 13)
Перелік серій

1. Countdown to a Prologue
2. The "i" of the Tiger
3. A Wolf in the Torque House
4. Guess Who's Coming to Lunch
5. J1: Judgment Day
6. The Binx Ultimatum
7. Homicide: Life in the Mons
8. The Last Horchata
9. The Ballad of PUP-E Q. Barkington
10. Exes and OS
11. Dia De Los Robots
12. The Brain Job
13. Ultra-Max
Якість:
Відео:
кодек:
розмір кадру: 720x300
бітрейт: ~1800 кб/с

Аудіо # 1:
мова: українська
переклад: багатоголосий закадровий
кодек: 2.0
бітрейт: 192 кб/с

Джерело озвучення:
DniproFilm
Info

Video
ID : 0
Format : MPEG-4 Visual
Format profile : Advanced [email protected]
Format settings : BVOP2
Format settings, BVOP : 2
Format settings, QPel : No
Format settings, GMC : No warppoints
Format settings, Matrix : Default (H.263)
Muxing mode : Packed bitstream
Codec ID :
Codec ID/Hint :
Duration : 28 min 15 s
Bit rate : 1 600 kb/s
Width : 720 pixels
Height : 300 pixels
Display aspect ratio : 2.40:1
Frame rate : 23.976 (24000/1001) FPS
Color space : YUV
Chroma subsampling : 4:2:0
Bit depth : 8 bits
Scan type : Progressive
Compression mode : Lossy
Bits/(Pixel*Frame) : 0.309
Stream size : 323 MiB (89%)
Writing library : 67

Audio
ID : 1
Format : AC-3
Format/Info : Audio Coding 3
Commercial name : Dolby Digital
Codec ID : 2000
Duration : 28 min 15 s
Bit rate mode : Constant
Bit rate : 192 kb/s
Channel(s) : 2 channels
Channel positions : Front: L R
Sampling rate : 48.0 kHz
Frame rate : 31.250 FPS (1536 SPF)
Bit depth : 16 bits
Compression mode : Lossy
Stream size : 38.8 MiB (11%)
Alignment : Aligned on interleaves
Interleave, duration : 42 ms (1.00 video frame)
Interleave, preload duratio : 512 ms
Service kind : Complete Main
Скріншоти


Увага, присутня відео та аудіореклама.


Джерело: DniproFilm


Авторський реліз (завантажувати можна без реєстрації)
 Трекер:    Зареєстрований   

Завантажити / скачати серіал українською



відео для новачків



 Зареєстрований:   2019-01-11 23:40
 Розмір:   4.88 GB 
 Оцінка серіалу:   9.2/10 (Голосів: 16)
   
Петров Микола 
VIP


З нами з: 15.08.14
Востаннє: 18.08.19
Повідомлень: 574

2019-01-11 23:51  
Воу, оце швидкість, дякую)
ced 
Свій


З нами з: 11.02.17
Востаннє: 18.08.19
Повідомлень: 98

2019-01-12 00:29  
Супер!
Estranded 
VIP


З нами з: 09.02.14
Востаннє: 19.08.19
Повідомлень: 1394

2019-01-12 15:07  
хех, несподівано, й так швидко.
ivasykus 
VIP


З нами з: 10.02.09
Востаннє: 04.08.19
Повідомлень: 572

2019-01-12 15:40  
Оперативність вражає, дякую. Шкода тільки, що не витримали стилістику перекладу першого сезону. Там було чесніше.
Neadekvat87 
Частий відвідувач


З нами з: 09.09.17
Востаннє: 18.08.19
Повідомлень: 40

2019-01-15 15:03  
2 серія 14:03 український прапор на екрані ( перемир`я) Wide grin
Demyan 
Відео Гуртом - озвучення
Відео Гуртом - озвучення


З нами з: 04.02.10
Востаннє: 18.08.19
Повідомлень: 234

2019-01-17 16:59  
як озвучення?
ssTAss 
Модератор музики


З нами з: 05.07.08
Востаннє: 18.08.19
Повідомлень: 15276

2019-01-17 17:37  
без реклами тут https://toloka.to/t98274
Vasyava 
VIP


З нами з: 26.04.10
Востаннє: 14.08.19
Повідомлень: 320

2019-04-10 23:02  
другий сезон на жаль,повний треш (((
Katrynka 
Свій


З нами з: 23.11.09
Востаннє: 18.08.19
Повідомлень: 61

2019-08-18 01:48  
сам серіал дуже сподобався, другий сезон на рівні першого, очікується і 3 сезон
а от переклад DniproFilm не дуже, сильно причесаний

Ваш часовий пояс: GMT + 2 Години

Нова тема   Відповісти