Людина майбутнього (Сезон 2) / Future Man (Season 2) (2019) 720p Ukr/Eng

Нові коментарі

Нова тема   Відповісти
Останній раз роздавалося Alex_Andersen (2019-10-04)
Автор Повідомлення
DniproFilm 
VIP


З нами з: 10.10.18
Востаннє: 19.11.20
Повідомлень: 443

2019-01-11 22:40  
Людина майбутнього (Сезон 2) / Future Man (Season 2) (2019) 720p Ukr/Eng

Людина майбутнього (Сезон 2) / Future Man (Season 2) (2019) 720p Ukr/Eng


Жанр: бойовик, комедія, фантастика
Країна: США



Кінокомпанія / телеканал: Sony Pictures Television, Point Grey Pictures
Режисер: Еван Голдберг, Сет Роген
Актори/ролі озвучують: Джош Гатчерсон, Гейлі Джоел Осмент, Еліза Куп, Гленн Гедлі, Ед Беглі мол., Дерек Вілсон та інші

Сюжет:
Захоплююча суміш наукової фантастики, бойовика та комедії, що пародіює ідеї культових екшнів Джеймса Камерона «Термінатор» та «Термінатор 2».
Головний герой - такий собі гік та лузер Джош Футармайн, який працює прибиральником, живе з батьками і весь вільний час грає в улюблену комп'ютерну гру «Біотичні війни». Але раптово, його життя різко змінюється і він виявляється у вирі фантастичних подій і пригод. Доля людства тепер залежить від того як невдаха впорається зі своєю місією…


Тривалість: 1 серія: ~ 30 хв. (цілком серій: 13)
Перелік серій

1. Countdown to a Prologue
2. The "i" of the Tiger
3. A Wolf in the Torque House
4. Guess Who's Coming to Lunch
5. J1: Judgment Day
6. The Binx Ultimatum
7. Homicide: Life in the Mons
8. The Last Horchata
9. The Ballad of PUP-E Q. Barkington
10. Exes and OS
11. Dia De Los Robots
12. The Brain Job
13. Ultra-Max
Якість: 720p
Відео:
кодек:
розмір кадру: 1280x532
бітрейт: ~4000 кб/с

Аудіо # 1:
мова: українська
переклад: багатоголосий закадровий
кодек: 2.0
бітрейт: 192 кб/с

Аудіо # 2:
мова: англійська
переклад: оригінал
кодек: 2.0
бітрейт: 384 кб/с

Джерело озвучення:
DniproFilm
Info

Video
ID : 1
Format : AVC
Format/Info : Advanced Video Codec
Format profile : [email protected]
Format settings : CABAC / 4 Ref Frames
Format settings, CABAC : Yes
Format settings, ReFrames : 4 frames
Codec ID : V_MPEG4/ISO/AVC
Duration : 28 min 15 s
Bit rate : 3 900 kb/s
Width : 1 280 pixels
Height : 532 pixels
Display aspect ratio : 2.40:1
Frame rate mode : Constant
Frame rate : 23.976 (24000/1001) FPS
Standard : NTSC
Color space : YUV
Chroma subsampling : 4:2:0
Bit depth : 8 bits
Scan type : Progressive
Bits/(Pixel*Frame) : 0.239
Stream size : 788 MiB (87%)
Language : English
Default : Yes
Forced : No
Color range : Limited
Color primaries : BT.601 NTSC
Transfer characteristics : BT.601
Matrix coefficients : BT.601

Audio #1
ID : 2
Format : AC-3
Format/Info : Audio Coding 3
Commercial name : Dolby Digital
Codec ID : A_AC3
Duration : 28 min 15 s
Bit rate mode : Constant
Bit rate : 192 kb/s
Channel(s) : 2 channels
Channel positions : Front: L R
Sampling rate : 48.0 kHz
Frame rate : 31.250 FPS (1536 SPF)
Bit depth : 16 bits
Compression mode : Lossy
Stream size : 38.8 MiB (4%)
Title : DniproFilm
Language : Ukrainian
Service kind : Complete Main
Default : Yes
Forced : No

Audio #2
ID : 3
Format : AC-3
Format/Info : Audio Coding 3
Codec ID : A_AC3
Duration : 27 min 44 s
Bit rate : 384 kb/s
Channel(s) : 2 channels
Sampling rate : 48.0 kHz
Frame rate : 31.250 FPS (1536 SPF)
Compression mode : Lossy
Stream size : 76.2 MiB (8%)
Language : English
Default : No
Forced : No
Скріншоти


Увага, присутня відео та аудіореклама.


Джерело: DniproFilm


Авторський реліз (завантажувати можна без реєстрації)
 Трекер:    Зареєстрований   

Завантажити / скачати серіал українською



відео для новачків



 Зареєстрований:   2019-01-11 22:40
 Розмір:   11.43 GB 
 Оцінка серіалу:   9.8/10 (Голосів: 10)
   
Ігор Вінський 
VIP


З нами з: 17.03.11
Востаннє: 26.11.20
Повідомлень: 436

2019-01-12 09:32  
Шановна студія DniproFilm, я вдячний Вам за нормальний переклад другого сезону цього чорногуморного серіялу. Було б чудово якби Ви озвучили й перший сезон.
rabarg 
Новенький


З нами з: 08.09.15
Востаннє: 26.11.20
Повідомлень: 15

2019-01-14 21:45  
Круть!
DniproFilm 
VIP


З нами з: 10.10.18
Востаннє: 19.11.20
Повідомлень: 443

2019-01-14 22:22  
Ігор Вінський
Дякуємо за пропозицію. На жаль, поки це не є можливим, так як перший сезон вже озвучено українською і спонсори поки не виявляють бажання озвучувати старе наново.

Anоnymous 
VIP


З нами з: 25.08.18
Востаннє: 04.06.19
Повідомлень: 808

2019-01-14 22:29  
DniproFilm
Аа гру престолів не бажають? мені ваші голоси набагато більше довподоби чим іншої студії

Ігор Вінський 
VIP


З нами з: 17.03.11
Востаннє: 26.11.20
Повідомлень: 436

2019-01-20 21:44  
DniproFilm
Що ж шкода... Перший сезон не озвучено українською. Бо важко назвати українською суміш деяких українських та багатьох московських ненормативних (навіть для самих росіян) слів. Принаймі радує що Ви так не робите. Я вже подивився перший сезон, не нашою, але без матюччя. Сумно що в українців знову немає вибору.

[email protected] 
Новенький


З нами з: 20.01.18
Востаннє: 22.11.20
Повідомлень: 10

2019-01-21 20:17  
Ігор Вінський
Підтримую! Взагалі багато ця студія робить

0mage0 
VIP


З нами з: 06.10.15
Востаннє: 26.11.20
Повідомлень: 709

2019-04-11 21:32  
"Захоплююча" -> захоплива
Jack Smiles 
Попереджень: 1
Попереджень: 1 


З нами з: 24.06.16
Востаннє: 18.11.20
Повідомлень: 108

2019-08-23 20:26  
DniproFilm
Я вам раджу створити торрент сайт де люди будуть качати серіали з вашим перекладом і на сайт пхати рекламу, бо серіали з вашим перекладом на жаль мають дуже багато реклами, а це дуже погіршує перегляд. Приклад вам кацапський lostfilm, у серіалах жодної реклами і є сайт . Буде дуже добре якщо і в Україні так буде з Українським перекладом серіалів.

Ваш часовий пояс: GMT + 2 Години

Нова тема   Відповісти