Людина майбутнього (Сезон 2) / Future Man (Season 2) (2019) 1080p Ukr/Eng

Нові коментарі

Нова тема   Відповісти
Автор Повідомлення
DniproFilm 
VIP


З нами з: 10.10.18
Востаннє: 13.07.19
Повідомлень: 251

2019-01-11 23:40  
Людина майбутнього (Сезон 2) / Future Man (Season 2) (2019) 1080p Ukr/Eng

Людина майбутнього (Сезон 2) / Future Man (Season 2) (2019) 1080p Ukr/Eng


Жанр: бойовик, комедія, фантастика
Країна: США



Кінокомпанія / телеканал: Sony Pictures Television, Point Grey Pictures
Режисер: Еван Голдберг, Сет Роген
Актори/ролі озвучують: Джош Гатчерсон, Гейлі Джоел Осмент, Еліза Куп, Гленн Гедлі, Ед Беглі мол., Дерек Вілсон та інші

Сюжет:
Захоплююча суміш наукової фантастики, бойовика та комедії, що пародіює ідеї культових екшнів Джеймса Камерона «Термінатор» та «Термінатор 2».
Головний герой - такий собі гік та лузер Джош Футармайн, який працює прибиральником, живе з батьками і весь вільний час грає в улюблену комп'ютерну гру «Біотичні війни». Але раптово, його життя різко змінюється і він виявляється у вирі фантастичних подій і пригод. Доля людства тепер залежить від того як невдаха впорається зі своєю місією…


Тривалість: 1 серія: ~ 30 хв. (цілком серій: 13)
Перелік серій

1. Countdown to a Prologue
2. The "i" of the Tiger
3. A Wolf in the Torque House
4. Guess Who's Coming to Lunch
5. J1: Judgment Day
6. The Binx Ultimatum
7. Homicide: Life in the Mons
8. The Last Horchata
9. The Ballad of PUP-E Q. Barkington
10. Exes and OS
11. Dia De Los Robots
12. The Brain Job
13. Ultra-Max
Якість: 1080p
Відео:
кодек:
розмір кадру: 1920x800
бітрейт: ~7000 кб/с

Аудіо # 1:
мова: українська
переклад: багатоголосий закадровий
кодек: 2.0
бітрейт: 192 кб/с

Аудіо # 2:
мова: англійська
переклад: оригінал
кодек: 2.0
бітрейт: 384 кб/с

Джерело озвучення:
DniproFilm
Info

Video
ID : 1
Format : AVC
Format/Info : Advanced Video Codec
Format profile : [email protected]
Format settings : CABAC / 4 Ref Frames
Format settings, CABAC : Yes
Format settings, ReFrames : 4 frames
Codec ID : V_MPEG4/ISO/AVC
Duration : 28 min 15 s
Bit rate : 6 826 kb/s
Width : 1 920 pixels
Height : 800 pixels
Display aspect ratio : 2.40:1
Frame rate mode : Constant
Frame rate : 23.976 (24000/1001) FPS
Standard : NTSC
Color space : YUV
Chroma subsampling : 4:2:0
Bit depth : 8 bits
Scan type : Progressive
Bits/(Pixel*Frame) : 0.185
Stream size : 1.35 GiB (92%)
Language : English
Default : Yes
Forced : No
Color range : Limited
Color primaries : BT.709
Transfer characteristics : BT.709
Matrix coefficients : BT.709

Audio #1
ID : 2
Format : AC-3
Format/Info : Audio Coding 3
Commercial name : Dolby Digital
Codec ID : A_AC3
Duration : 28 min 15 s
Bit rate mode : Constant
Bit rate : 192 kb/s
Channel(s) : 2 channels
Channel positions : Front: L R
Sampling rate : 48.0 kHz
Frame rate : 31.250 FPS (1536 SPF)
Bit depth : 16 bits
Compression mode : Lossy
Stream size : 38.8 MiB (3%)
Title : DniproFilm
Language : Ukrainian
Service kind : Complete Main
Default : Yes
Forced : No

Audio #2
ID : 3
Format : AC-3
Format/Info : Audio Coding 3
Codec ID : A_AC3
Duration : 27 min 44 s
Bit rate : 384 kb/s
Channel(s) : 2 channels
Sampling rate : 48.0 kHz
Frame rate : 31.250 FPS (1536 SPF)
Compression mode : Lossy
Stream size : 76.2 MiB (5%)
Language : English
Default : No
Forced : No
Скріншоти


Увага, присутня відео та аудіореклама.


Джерело: DniproFilm


Авторський реліз (завантажувати можна без реєстрації)
 Трекер:    Зареєстрований   

Завантажити / скачати серіал українською



відео для новачків



 Зареєстрований:   2019-01-11 23:40
 Розмір:   18.91 GB 
 Оцінка серіалу:   9/10 (Голосів: 9)
   
Cartwright 
Поважний учасник


З нами з: 23.03.13
Востаннє: 18.07.19
Повідомлень: 227

2019-01-12 00:13  
Хм, як таке можливо. Серіал тільки вийшов. Це мабуть рекорд швидкості озвучення.
NeetScrool 
Відео Гуртом - фільмокрай
Відео Гуртом - фільмокрай


З нами з: 10.01.13
Востаннє: 16.07.19
Повідомлень: 2981

2019-01-12 00:30  

поправте оформлення

leicheman 
Відео Гуртом - підтримка та поширення
Відео Гуртом - підтримка та поширення


З нами з: 03.07.14
Востаннє: 18.07.19
Повідомлень: 3768

2019-01-12 08:55  
А що там з Орвілом? Будете робити ? Бо в телеграмі обіцяли другий сезон з вашим озвученням.
Влад Гук 
Частий відвідувач


З нами з: 06.07.13
Востаннє: 17.07.19
Повідомлень: 41

2019-01-12 14:30  
Дякую велике за оперативність, жаль що ваші релізи з рекламою забороняють((
Могли ж просто розділ з рекламою створити на толоці. Надіюсь у вас колись буде власний ресурс, де можна буде завантажити контентет з нормальним звуком...

Dark Invader 
Модератор відео


З нами з: 06.01.11
Востаннє: 18.07.19
Повідомлень: 2681

2019-01-12 18:45  
leicheman написано:
А що там з Орвілом? Будете робити ? Бо в телеграмі обіцяли другий сезон з вашим озвученням.

Теж цікаво, я їх запитував в приват про це, але вони прочитали повідомлення і проігнорили...

Петров Микола 
VIP


З нами з: 15.08.14
Востаннє: 18.07.19
Повідомлень: 560

2019-01-12 19:07  
Dark Invader написано:
Теж цікаво, я їх запитував в приват про це, але вони прочитали повідомлення і проігнорили...

Навіть якщо і будуть озвучувати, то на толоці не варто очікувати.

Dark Invader 
Модератор відео


З нами з: 06.01.11
Востаннє: 18.07.19
Повідомлень: 2681

2019-01-12 19:14  
leicheman
Петров Микола
Тільки що відписали в приват, що озвучення буде. Чекаємо у понеділок перші 3 серії (якщо все піде за планом).
Але от де тепер шукати їхні релізи поки не відомо.

leicheman 
Відео Гуртом - підтримка та поширення
Відео Гуртом - підтримка та поширення


З нами з: 03.07.14
Востаннє: 18.07.19
Повідомлень: 3768

2019-01-13 15:05  
Dark Invader написано:
Але от де тепер шукати їхні релізи поки не відомо.

на юафілм скоріш за все

oster_ok 
Відео Гуртом - підтримка та поширення
Відео Гуртом - підтримка та поширення


З нами з: 20.11.11
Востаннє: 17.07.19
Повідомлень: 139

2019-01-14 22:14  
DniproFilm,
Якщо я використою Ваш постер і залию його на інший сервіс без Вашого підпису знизу, це буде рахуватися порушенням? Я можу це зробити?

Ваш часовий пояс: GMT + 2 Години

Нова тема   Відповісти