Вікно на двір / Вікно у двір / Rear Window (1954) Remux 1080 Ukr/Eng | Sub Eng

Нові коментарі

Нова тема   Відповісти
Автор Повідомлення
MakRA 
Поважний учасник


З нами з: 11.11.18
Востаннє: 24.04.19
Повідомлень: 174

2019-01-11 20:03  
Вікно на двір / Вікно у двір / Rear Window (1954) Remux 1080p Ukr/Eng | Sub Eng

Вікно на двір / Вікно у двір / Rear Window (1954) Remux 1080 Ukr/Eng | Sub Eng

Альтернативні обкладинки:





Жанр: детектив, психологічний, трилер, саспенс
Країна: США



Кінокомпанія: Paramount Pictures (1954-83), Universal Studios, USA Films
Режисер: Альфред Гічкок [Alfred Hitchcock]
Актори: Джеймс Стюарт [James Stewart], Ґрейс Келлі [Grace Kelly], Вендел Корі [Wendell Corey], Телма Ріттер [Thelma Ritter], Реймонд Бур [Raymond Burr], Джудіт Евелін [Judith Evelyn] Росс Баґдасаріян [Ross Bagdasarian], Джорджін Дарсі [Georgine Darcy], Сара Бернер [Sara Berner], Френк Кеді [Frank Cady], Джеслін Факс [Jesslyn Fax], Ренд Гарпер [Rand Harper], Ірен Вінстон [Irene Winston].

Сюжет:
Дуже своєрідна робота у фільмографії Хічкока. За сюжетом головний герой прикутий до інвалідного візка. Через нудьгу він спостерігає за життям сусідів навпроти. Одного разу він приходить до висновку, що в сусідньому будинку сталося вбивство. І тут розпочинається найцікавіше. Глядачі, очима головного героя спостерігають за вбивцею, і розслідують злочин разом з ним.
Це свого роду інтерактивний детектив, з максимально можливим залученням глядача в дію фільму. Стрічка вважається класикою детективного жанру і стала прикладом для натхнення багатьох режисерів.

Екранізація по книзі Корнелла Вулріча "Мабуть, це було вбивство".

Цікаві факти:


Камео Альфреда Гічкока — заводить годинник у квартирі музиканта.
"Якщо ви не відчуєте приємного жаху під час перегляду „Вікна у двір“ ущипніть себе — скоріш за все ви вже мертві" - один з рекламних слоганів фільму.


Нагороди і номінації:


Оскар, 1955 рік
Номінації (4):
Найкращий режисер (Альфред Гічкок)
Найкращий адаптований сценарій
Найкраща робота оператора (кольорові фільми)
Найкращий звук

Премія Едгара Аллана По за найкращий сценарій до художнього фільму
1955 · John Michael Hayes
Премія Національної ради кінокритиків США за найкращу жіночу роль
1954 · Грейс Келлі




Тривалість: 01:52:26
Якість: Remux 1080
Відео:
кодек:
розмір кадру: 1920 х 1080
бітрейт: 31.9 Mb/s

Аудіо # 1:
мова: українська
переклад: багатоголосий закадровий [ІНТЕР]
кодек: 2.0
бітрейт: 192 kb/s

Аудіо # 2:
мова: англійська
переклад: оригінал
кодек: -MA 2.0
бітрейт: 1 771 kb/s

Аудіо # 3:
мова: англійська
переклад: оригінал (Коментарі)
кодек: 2.0
бітрейт: 192 kb/s

Субтитри # 1:
мова: англійська
тип: пререндерні
формат: *.pgs

Субтитри # 2:
мова: англійська (Коментарі)
тип: пререндерні
формат: *.pgs
Info
General
Unique ID : 152158962569916573239865700700783257413 (0x7278C00F34D0CD165B3D11642E7A2745)
Complete name : D:\Завантаження\Rear Window (1954) Remux 1080p UkrEng Sub Eng [Hurtom].
Format :
Format version : Version 4 / Version 2
File size : 26.8 GiB
Duration : 1 h 52 min
Overall bit rate mode : Variable
Overall bit rate : 34.1 Mb/s
Encoded date : UTC 2019-01-11 09:17:21
Writing application : v25.0.0 ('Prog Noir') 64-bit
Writing library : libebml v1.3.6 + v1.4.9

Video
ID : 1
Format : AVC
Format/Info : Advanced Video Codec
Format profile : [email protected]
Format settings, CABAC : Yes
Format settings, RefFrames : 4 frames
Codec ID : V_MPEG4/ISO/AVC
Duration : 1 h 52 min
Bit rate mode : Variable
Bit rate : 31.9 Mb/s
Maximum bit rate : 35.0 Mb/s
Width : 1 920 pixels
Height : 1 080 pixels
Display aspect ratio : 16:9
Frame rate mode : Constant
Frame rate : 23.976 (24000/1001) FPS
Color space : YUV
Chroma subsampling : 4:2:0
Bit depth : 8 bits
Scan type : Progressive
Bits/(Pixel*Frame) : 0.641
Stream size : 25.0 GiB (94%)
Title : Rear Window (1954) Remux 1080p Ukr/Eng | Sub Eng [Hurtom]
Language : Ukrainian
Default : Yes
Forced : Yes

Audio #1
ID : 2
Format : AC-3
Format/Info : Audio Coding 3
Format settings, Endianness : Big
Codec ID : A_AC3
Duration : 1 h 52 min
Bit rate mode : Constant
Bit rate : 192 kb/s
Channel(s) : 2 channels
Channel positions : Front: L R
Sampling rate : 48.0 kHz
Frame rate : 31.250 FPS (1536 SPF)
Bit depth : 16 bits
Compression mode : Lossy
Stream size : 154 MiB (1%)
Title : MVO [ІНТЕР]
Language : Ukrainian
Service kind : Complete Main
Default : Yes
Forced : Yes

Audio #2
ID : 3
Format :
Format/Info : Digital Theater Systems
Format profile : MA / Core
Mode : 16
Format settings, Endianness : Big
Codec ID : A_DTS
Duration : 1 h 52 min
Bit rate mode : Variable / Constant
Bit rate : 1 771 kb/s / 1 509 kb/s
Channel(s) : 2 channels
Channel positions : Front: L R
Sampling rate : 48.0 kHz
Frame rate : 93.750 FPS (512 SPF)
Bit depth : 24 bits
Compression mode : Lossless / Lossy
Stream size : 1.39 GiB (5%)
Title : Original
Language : English
Default : No
Forced : No

Audio #3
ID : 4
Format : AC-3
Format/Info : Audio Coding 3
Format settings, Endianness : Big
Codec ID : A_AC3
Duration : 1 h 52 min
Bit rate mode : Constant
Bit rate : 192 kb/s
Channel(s) : 2 channels
Channel positions : Front: L R
Sampling rate : 48.0 kHz
Frame rate : 31.250 FPS (1536 SPF)
Bit depth : 16 bits
Compression mode : Lossy
Stream size : 154 MiB (1%)
Title : Original (Коментарі)
Service kind : Complete Main
Default : No
Forced : No

Text #1
ID : 5
Format : PGS
Muxing mode : zlib
Codec ID : S_HDMV/PGS
Codec ID/Info : Picture based subtitle format used on BDs/HD-DVDs
Duration : 1 h 49 min
Bit rate : 43.7 kb/s
Count of elements : 2888
Stream size : 34.3 MiB (0%)
Title : Eng
Language : English
Default : No
Forced : No

Text #2
ID : 6
Format : PGS
Muxing mode : zlib
Codec ID : S_HDMV/PGS
Codec ID/Info : Picture based subtitle format used on BDs/HD-DVDs
Duration : 1 h 52 min
Bit rate : 78.8 kb/s
Count of elements : 3953
Stream size : 63.2 MiB (0%)
Title : Eng (Коментарі)
Default : No
Forced : No
Скріншоти
Джерело: &
Особиста оцінка: 10 - без зайвих вагань рекомендую всім!



Золотий реліз (завантажене не впливає на рейтинг)
 Трекер:    Зареєстрований   

Завантажити / скачати фільм українською



відео для новачків



 Зареєстрований:   2019-01-11 20:03
 Розмір:   26.76 GB 
 Оцінка фільму:   9.4/10 (Голосів: 5)
   
Інші релізи
fifiabe 
Новенький


З нами з: 13.11.15
Востаннє: 15.04.19
Повідомлень: 16

2019-01-25 20:16  
Як же важко сприймається зараз зйомка в такому старому повільному стилі. Раз переглянути можна для загального розвитку.
MakRA 
Поважний учасник


З нами з: 11.11.18
Востаннє: 24.04.19
Повідомлень: 174

2019-01-25 21:27  
fifiabe
Просто вся справа у настрої і розумінні того, що душа бажає) Інколи це "Трансформери"/ "Месники"... а інколи "Вікно у двір" чи "Виховання Крихітки"...

Maters 
VIP


З нами з: 27.03.12
Востаннє: 24.04.19
Повідомлень: 1636

2019-03-31 22:42  
Так раз переглянути можна, а потім ще раз, а потім ще багато разів.
Я не знаю, скільки разів вже передивився 12 розгніваних чоловіків 57 року і буду дивитись ще.
Цей фільм справив приблизно таке ж враження.
Дякую

Ваш часовий пояс: GMT + 2 Години

Нова тема   Відповісти