Общак / Брудні гроші / The Drop (2014) mini 1080p H.265 2xUkr/Eng | Sub Ukr/Eng

Нові коментарі

Нова тема   Відповісти
Автор Повідомлення
Anonymous 







2019-01-11 15:37  
Общак / Брудні гроші / The Drop (2014) mini 1080p H.265 2xUkr/Eng | Sub Ukr/Eng

Общак / Брудні гроші / The Drop (2014) mini 1080p H.265 2xUkr/Eng | Sub Ukr/Eng


Жанр: драма, кримінальний
Країна: США
Кінокомпанія: Chernin Entertainment, Fox Searchlight Pictures
Режисер: Мікаель Р. Роскам
Актори: Том Гарді, Джеймс Ґандольфіні, Нумі Рапас, Маттіас Шонартс, Джон Ортіс, Майкл Аронов, Елізабет Родріґес, Морґан Спектор, Майкл Еспер, Джеймс Фречевілл, Енн Дауд, Кріс Салліван та інші

Сюжет:
Боб працює барменом у барі свого кузена Марва і живе скромним та самотнім життям. Час від часу місцеві бандити "відмивають" у Марва свої гроші. Такі справи відбувалися завжди спокійно і непомітно. Але одного дня, коли так звані "брудні гроші" знаходилися у барі, бар пограбували. Через це у кузенів виникають проблеми з людьми, з якими краще проблем не мати...

Тривалість: 01:46:44
Якість: mini
Відео:
кодек: H.265 (HEVC)
розмір кадру: 1920 x 800
бітрейт: 4 250 кб/с
частота кадрів: 23.976 fps
біт піксель: 0.115 BPP
бітова глибина: 10 біт
Увага! Перед завантаженням переконайтесь, що ваш пристрій відтворення (та/або ПЗ) підтримує H.265 (HEVC)

Аудіо # 1:
мова: українська
переклад: багатоголосий закадровий
кодек: AC-3 2.0
бітрейт: 192 кб/с

Аудіо # 2:
мова: українська
переклад: одноголосий закадровий (SATKUR)
кодек: AC-3 5.1
бітрейт: 448 кб/с

Аудіо # 3:
мова: англійська
переклад: оригінал
кодек: AC-3 5.1
бітрейт: 448 кб/с

Субтитри # 1:
мова: українська (Full),
тип: програмні (м'які)
формат: *.srt

Субтитри # 2:
мова: англійська (Full),
тип: програмні (м'які)
формат: *.srt

Субтитри # 3:
мова: англійська (SDH),
тип: програмні (м'які)
формат: *.srt

Субтитри # 4:
мова: англійська (SDH-Colored),
тип: програмні (м'які)
формат: *.srt


Info
Код:
General
Unique ID                                : 246351864215841143917904549273226558334 (0xB955A4A9BB27C6B44708AC4E3615BB7E)
Complete name                            : G:\Video\Films\The Drop (2014) 1080p H.265 [2xUKR_ENG].
Format                                   :
Format version                           : Version 4 / Version 2
File size                                : 3.98 GiB
Duration                                 : 1 h 46 min
Overall bit rate                         : 5 342 kb/s
Movie name                               : The Drop (2014)
Encoded date                             : UTC 2019-01-11 11:50:20
Writing application                      : v20.0.0 ('I Am The Sun') 32-bit
Writing library                          : libebml v1.3.5 + v1.4.8
Cover                                    : Yes
Attachments                              : Cover.jpg

Video
ID                                       : 1
Format                                   : HEVC
Format/Info                              : High Efficiency Video Coding
Format profile                           : Main [email protected]@Main
Codec ID                                 : V_MPEGH/ISO/HEVC
Duration                                 : 1 h 46 min
Bit rate                                 : 4 250 kb/s
Width                                    : 1 920 pixels
Height                                   : 800 pixels
Display aspect ratio                     : 2.40:1
Frame rate mode                          : Constant
Frame rate                               : 23.976 (24000/1001) FPS
Color space                              : YUV
Chroma subsampling                       : 4:2:0
Bit depth                                : 10 bits
Bits/(Pixel*Frame)                       : 0.115
Stream size                              : 3.17 GiB (80%)
Title                                    : The Drop (2014)
Writing library                          : x265 2.9+1-169e76b6bbcc:[Windows][GCC 8.2.0][64 bit] 10bit
Encoding settings                        : cpuid=1111039 / frame-threads=3 / numa-pools=8 / wpp / no-pmode / no-pme / no-psnr / no-ssim / log-level=2 / input-csp=1 / input-res=1920x800 / interlace=0 / total-frames=153543 / level-idc=0 / high-tier=1 / uhd-bd=0 / ref=4 / no-allow-non-conformance / no-repeat-headers / annexb / no-aud / no-hrd / info / hash=0 / no-temporal-layers / open-gop / min-keyint=23 / keyint=250 / gop-lookahead=0 / bframes=4 / b-adapt=2 / b-pyramid / bframe-bias=0 / rc-lookahead=25 / lookahead-slices=4 / scenecut=40 / radl=0 / no-intra-refresh / ctu=64 / min-cu-size=8 / rect / no-amp / max-tu-size=32 / tu-inter-depth=1 / tu-intra-depth=1 / limit-tu=0 / rdoq-level=2 / dynamic-rd=0.00 / no-ssim-rd / signhide / no-tskip / nr-intra=0 / nr-inter=0 / no-constrained-intra / strong-intra-smoothing / max-merge=3 / limit-refs=3 / limit-modes / me=3 / subme=3 / merange=57 / temporal-mvp / weightp / no-weightb / no-analyze-src-pics / deblock=0:0 / sao / no-sao-non-deblock / rd=4 / no-early-skip / rskip / no-fast-intra / no-tskip-fast / no-cu-lossless / no-b-intra / no-splitrd-skip / rdpenalty=0 / psy-rd=2.00 / psy-rdoq=1.00 / no-rd-refine / no-lossless / cbqpoffs=0 / crqpoffs=0 / rc=abr / bitrate=4250 / qcomp=0.60 / qpstep=4 / stats-write=0 / stats-read=2 / cplxblur=20.0 / qblur=0.5 / ipratio=1.40 / pbratio=1.30 / aq-mode=3 / aq-strength=1.00 / cutree / zone-count=0 / no-strict-cbr / qg-size=32 / no-rc-grain / qpmax=69 / qpmin=0 / no-const-vbv / sar=0 / overscan=0 / videoformat=5 / range=0 / colorprim=2 / transfer=2 / colormatrix=2 / chromaloc=0 / display-window=0 / max-cll=0,0 / min-luma=0 / max-luma=1023 / log2-max-poc-lsb=8 / vui-timing-info / vui-hrd-info / slices=1 / no-opt-qp-pps / no-opt-ref-list-length-pps / multi-pass-opt-rps / scenecut-bias=0.05 / no-opt-cu-delta-qp / aq-motion / no-hdr / no-hdr-opt / no-dhdr10-opt / no-idr-recovery-sei / analysis-reuse-level=5 / scale-factor=0 / refine-intra=0 / refine-inter=0 / refine-mv=0 / no-limit-sao / ctu-info=0 / no-lowpass-dct / refine-mv-type=0 / copy-pic=1 / max-ausize-factor=1.0 / no-dynamic-refine / no-single-sei
Default                                  : Yes
Forced                                   : No

Audio #1
ID                                       : 2
Format                                   : AC-3
Format/Info                              : Audio Coding 3
Codec ID                                 : A_AC3
Duration                                 : 1 h 46 min
Bit rate mode                            : Constant
Bit rate                                 : 192 kb/s
Channel(s)                               : 2 channels
Channel positions                        : Front: L R
Sampling rate                            : 48.0 kHz
Frame rate                               : 31.250 FPS (1536 SPF)
Bit depth                                : 16 bits
Compression mode                         : Lossy
Stream size                              : 147 MiB (4%)
Title                                    : БЗ - 2+2
Language                                 : Ukrainian
Service kind                             : Complete Main
Default                                  : Yes
Forced                                   : Yes

Audio #2
ID                                       : 3
Format                                   : AC-3
Format/Info                              : Audio Coding 3
Codec ID                                 : A_AC3
Duration                                 : 1 h 46 min
Bit rate mode                            : Constant
Bit rate                                 : 448 kb/s
Channel(s)                               : 6 channels
Channel positions                        : Front: L C R, Side: L R, LFE
Sampling rate                            : 48.0 kHz
Frame rate                               : 31.250 FPS (1536 SPF)
Bit depth                                : 16 bits
Compression mode                         : Lossy
Stream size                              : 342 MiB (8%)
Title                                    : ОЗ - SATKUR
Language                                 : Ukrainian
Service kind                             : Complete Main
Default                                  : No
Forced                                   : No

Audio #3
ID                                       : 4
Format                                   : AC-3
Format/Info                              : Audio Coding 3
Codec ID                                 : A_AC3
Duration                                 : 1 h 46 min
Bit rate mode                            : Constant
Bit rate                                 : 448 kb/s
Channel(s)                               : 6 channels
Channel positions                        : Front: L C R, Side: L R, LFE
Sampling rate                            : 48.0 kHz
Frame rate                               : 31.250 FPS (1536 SPF)
Bit depth                                : 16 bits
Compression mode                         : Lossy
Stream size                              : 342 MiB (8%)
Title                                    : Original
Language                                 : English
Service kind                             : Complete Main
Default                                  : No
Forced                                   : No

Text #1
ID                                       : 5
Format                                   : UTF-8
Codec ID                                 : S_TEXT/UTF8
Codec ID/Info                            : UTF-8 Plain Text
Duration                                 : 1 h 41 min
Bit rate                                 : 84 b/s
Count of elements                        : 1260
Stream size                              : 63.1 KiB (0%)
Title                                    : Full
Language                                 : Ukrainian
Default                                  : Yes
Forced                                   : No

Text #2
ID                                       : 6
Format                                   : UTF-8
Codec ID                                 : S_TEXT/UTF8
Codec ID/Info                            : UTF-8 Plain Text
Duration                                 : 1 h 39 min
Bit rate                                 : 54 b/s
Count of elements                        : 1253
Stream size                              : 39.7 KiB (0%)
Title                                    : Full
Language                                 : English
Default                                  : No
Forced                                   : No

Text #3
ID                                       : 7
Format                                   : UTF-8
Codec ID                                 : S_TEXT/UTF8
Codec ID/Info                            : UTF-8 Plain Text
Duration                                 : 1 h 40 min
Bit rate                                 : 57 b/s
Count of elements                        : 1507
Stream size                              : 42.5 KiB (0%)
Title                                    : SDH
Language                                 : English
Default                                  : No
Forced                                   : No

Text #4
ID                                       : 8
Format                                   : UTF-8
Codec ID                                 : S_TEXT/UTF8
Codec ID/Info                            : UTF-8 Plain Text
Duration                                 : 1 h 40 min
Bit rate                                 : 65 b/s
Count of elements                        : 1507
Stream size                              : 48.2 KiB (0%)
Title                                    : SDH-Colored
Language                                 : English
Default                                  : No
Forced                                   : No

Menu
00:00:00.000                             : :Chapter 01
00:02:25.353                             : :Chapter 03
00:05:59.859                             : :Chapter 05
00:08:09.155                             : :Chapter 07
00:11:34.777                             : :Chapter 09
00:13:48.744                             : :Chapter 11
00:17:28.922                             : :Chapter 13
00:21:37.212                             : :Chapter 15
00:25:40.830                             : :Chapter 17
00:27:53.463                             : :Chapter 19
00:32:02.337                             : :Chapter 21
00:36:19.552                             : :Chapter 23
00:38:15.751                             : :Chapter 25
00:40:35.141                             : :Chapter 27
00:44:05.476                             : :Chapter 29
00:46:47.471                             : :Chapter 31
00:48:42.711                             : :Chapter 33
00:52:50.584                             : :Chapter 35
00:56:28.176                             : :Chapter 37
01:01:40.530                             : :Chapter 39
01:05:43.105                             : :Chapter 41
01:07:36.802                             : :Chapter 43
01:11:13.519                             : :Chapter 45
01:12:32.598                             : :Chapter 47
01:15:09.505                             : :Chapter 49
01:21:11.741                             : :Chapter 51
01:24:10.086                             : :Chapter 53
01:28:27.260                             : :Chapter 55
01:30:51.404                             : :Chapter 57
01:34:54.480                             : :Chapter 59
01:39:00.893                             : :Chapter 61
01:41:16.236                             : :Chapter 63
01:46:43.772                             : :Chapter 64
Світлини





Джерело: &
Особиста оцінка: 0 - не дивився


Авторський реліз (завантажувати можна без реєстрації)
 Трекер:    Зареєстрований   

Завантажити / скачати фільм українською



відео для новачків



 Зареєстрований:   2019-01-11 15:37
 Розмір:   3.98 GB 
 Оцінка фільму:   9.5/10 (Голосів: 8)
   
Інші релізи
   Общак / Брудні гроші / The Drop (2014) AVC 2xUkr/Eng | Sub Ukr/Eng drop_plz  4 / 0   2.41 GB   2018-08-06 09:36 
   Брудні гроші / The Drop (2014) Ukr/Eng SATKUR  1 / 0   2.18 GB   2015-01-25 02:32 
hetzendorf 
Попереджень: 1
Попереджень: 1 


З нами з: 23.07.15
Востаннє: 18.07.19
Повідомлень: 2314

2019-01-11 15:49  
То «плюси» чи хтось іще ніяк не може без кацапського блатного жаргону?
Anonymous 







2019-01-11 16:18  
hetzendorf написано:
То «плюси»

Так, саме вони.

waldi-hurtom 
VIP


З нами з: 07.10.12
Востаннє: 17.07.19
Повідомлень: 984

2019-01-19 19:17  
Переклад і начитка на трійочку, але фільм сподобався, 8 з 10. Немає тарантінівського смакування насиллям та кров'ю. І щось не зрозумів, до чого тут Брудні гроші???? Та навіть Общак? Назви вже Злий чечен або Скринька.
Ваш часовий пояс: GMT + 2 Години

Нова тема   Відповісти