Застрель їх / Shoot 'Em Up (2007) 1080p H.265 Ukr/Eng | Sub Eng

Нові коментарі

Нова тема   Відповісти
Автор Повідомлення
Anonymous 







2019-01-11 14:12  
Застрель їх / Shoot 'Em Up (2007) 1080p H.265 Ukr/Eng | Sub Eng

Застрель їх / Shoot 'Em Up (2007) 1080p H.265 Ukr/Eng | Sub Eng


Жанр: бойовик, комедія, трилер, кримінальний
Країна: США
Кінокомпанія: New Line Cinema
Режисер: Майкл Девіс / Michael Davis
Актори: Клайв Овен / Clive Owen, Пол Джаматті / Paul Giamatti, Моніка Беллуччі / Monica Bellucci, Стівен Макхетті / Stephen McHattie, Грег Брайк / Greg Bryk, Деніель Пілон / Daniel Pilon, Сідні Менде-Гібсон / Sidney Mende-Gibson та інші

Сюжет:
Головний герой Сміт, який не може забути трагічних подій свого минулого, стає випадковим свідком спроби вбивства молодої вагітної жінки. Під час божевільної перестрілки з бандитами породілля гине, а головний герой вирішує врятувати немовля. У результаті він опиняється вплутаним в урядову змову. Для догляду і нагляду за малюком Сміт звертається до своєї давньої знайомої, повії Донне Кінтана. Разом вони намагаються врятувати малюка і розкрити цю змову, в яку, як з'ясовується, вплутаний один з найвпливовіших чиновників...

Тривалість: 01:26:32
Якість:
Відео:
кодек: H.265 (HEVC)
розмір кадру: 1920 x 818
бітрейт: 4 999 кб/с
частота кадрів: 23.976 fps
біт піксель: 0.133 BPP
бітова глибина: 10 біт
Увага! Перед завантаженням переконайтесь, що ваш пристрій відтворення (та/або ПЗ) підтримує H.265 (HEVC)

Аудіо # 1:
мова: українська
переклад: багатоголосий закадровий
кодек: AC-3 5.1
бітрейт: 448 кб/с

Аудіо # 2:
мова: англійська
переклад: оригінал
кодек: AC-3 5.1
бітрейт: 448 кб/с

Субтитри # 1:
мова: англійська (Full),
тип: програмні (м'які)
формат: *.srt


Info
Код:
General
Unique ID                                : 65182168252556604032160314108080099987 (0x3109A104081C490578EFF01732991293)
Complete name                            : G:\Video\Films\Shoot 'Em Up (2007) 1080p H.265 [UKR_ENG].
Format                                   :
Format version                           : Version 4 / Version 2
File size                                : 3.56 GiB
Duration                                 : 1 h 26 min
Overall bit rate                         : 5 898 kb/s
Movie name                               : Shoot 'Em Up (2007)
Encoded date                             : UTC 2019-01-11 10:18:45
Writing application                      : v20.0.0 ('I Am The Sun') 32-bit
Writing library                          : libebml v1.3.5 + v1.4.8
Cover                                    : Yes
Attachments                              : cover.jpg

Video
ID                                       : 1
Format                                   : HEVC
Format/Info                              : High Efficiency Video Coding
Format profile                           : Main [email protected]@Main
Codec ID                                 : V_MPEGH/ISO/HEVC
Duration                                 : 1 h 26 min
Bit rate                                 : 4 999 kb/s
Width                                    : 1 920 pixels
Height                                   : 818 pixels
Display aspect ratio                     : 2.35:1
Frame rate mode                          : Constant
Frame rate                               : 23.976 (24000/1001) FPS
Color space                              : YUV
Chroma subsampling                       : 4:2:0
Bit depth                                : 10 bits
Bits/(Pixel*Frame)                       : 0.133
Stream size                              : 3.02 GiB (85%)
Title                                    : Shoot 'Em Up (2007)
Writing library                          : x265 2.9+1-169e76b6bbcc:[Windows][GCC 8.2.0][64 bit] 10bit
Encoding settings                        : cpuid=1111039 / frame-threads=3 / numa-pools=8 / wpp / no-pmode / no-pme / no-psnr / no-ssim / log-level=2 / input-csp=1 / input-res=1920x818 / interlace=0 / total-frames=124489 / level-idc=0 / high-tier=1 / uhd-bd=0 / ref=4 / no-allow-non-conformance / no-repeat-headers / annexb / no-aud / no-hrd / info / hash=0 / no-temporal-layers / open-gop / min-keyint=23 / keyint=250 / gop-lookahead=0 / bframes=4 / b-adapt=2 / b-pyramid / bframe-bias=0 / rc-lookahead=25 / lookahead-slices=4 / scenecut=40 / radl=0 / no-intra-refresh / ctu=64 / min-cu-size=8 / rect / no-amp / max-tu-size=32 / tu-inter-depth=1 / tu-intra-depth=1 / limit-tu=0 / rdoq-level=2 / dynamic-rd=0.00 / no-ssim-rd / signhide / no-tskip / nr-intra=0 / nr-inter=0 / no-constrained-intra / strong-intra-smoothing / max-merge=3 / limit-refs=3 / limit-modes / me=3 / subme=3 / merange=57 / temporal-mvp / weightp / no-weightb / no-analyze-src-pics / deblock=0:0 / sao / no-sao-non-deblock / rd=4 / no-early-skip / rskip / no-fast-intra / no-tskip-fast / no-cu-lossless / no-b-intra / no-splitrd-skip / rdpenalty=0 / psy-rd=2.00 / psy-rdoq=1.00 / no-rd-refine / no-lossless / cbqpoffs=0 / crqpoffs=0 / rc=abr / bitrate=5000 / qcomp=0.60 / qpstep=4 / stats-write=0 / stats-read=2 / cplxblur=20.0 / qblur=0.5 / ipratio=1.40 / pbratio=1.30 / aq-mode=3 / aq-strength=1.00 / cutree / zone-count=0 / no-strict-cbr / qg-size=32 / no-rc-grain / qpmax=69 / qpmin=0 / no-const-vbv / sar=0 / overscan=0 / videoformat=5 / range=0 / colorprim=2 / transfer=2 / colormatrix=2 / chromaloc=0 / display-window=0 / max-cll=0,0 / min-luma=0 / max-luma=1023 / log2-max-poc-lsb=8 / vui-timing-info / vui-hrd-info / slices=1 / no-opt-qp-pps / no-opt-ref-list-length-pps / multi-pass-opt-rps / scenecut-bias=0.05 / no-opt-cu-delta-qp / aq-motion / no-hdr / no-hdr-opt / no-dhdr10-opt / no-idr-recovery-sei / analysis-reuse-level=5 / scale-factor=0 / refine-intra=0 / refine-inter=0 / refine-mv=0 / no-limit-sao / ctu-info=0 / no-lowpass-dct / refine-mv-type=0 / copy-pic=1 / max-ausize-factor=1.0 / no-dynamic-refine / no-single-sei
Default                                  : Yes
Forced                                   : No

Audio #1
ID                                       : 2
Format                                   : AC-3
Format/Info                              : Audio Coding 3
Codec ID                                 : A_AC3
Duration                                 : 1 h 26 min
Bit rate mode                            : Constant
Bit rate                                 : 448 kb/s
Channel(s)                               : 6 channels
Channel positions                        : Front: L C R, Side: L R, LFE
Sampling rate                            : 48.0 kHz
Frame rate                               : 31.250 FPS (1536 SPF)
Bit depth                                : 16 bits
Compression mode                         : Lossy
Stream size                              : 277 MiB (8%)
Title                                    : БЗ - ICTV
Language                                 : Ukrainian
Service kind                             : Complete Main
Default                                  : Yes
Forced                                   : Yes

Audio #2
ID                                       : 3
Format                                   : AC-3
Format/Info                              : Audio Coding 3
Codec ID                                 : A_AC3
Duration                                 : 1 h 26 min
Bit rate mode                            : Constant
Bit rate                                 : 448 kb/s
Channel(s)                               : 6 channels
Channel positions                        : Front: L C R, Side: L R, LFE
Sampling rate                            : 48.0 kHz
Frame rate                               : 31.250 FPS (1536 SPF)
Bit depth                                : 16 bits
Compression mode                         : Lossy
Stream size                              : 277 MiB (8%)
Title                                    : Original
Language                                 : English
Service kind                             : Complete Main
Default                                  : No
Forced                                   : No

Text
ID                                       : 4
Format                                   : UTF-8
Codec ID                                 : S_TEXT/UTF8
Codec ID/Info                            : UTF-8 Plain Text
Duration                                 : 1 h 18 min
Bit rate                                 : 49 b/s
Count of elements                        : 880
Stream size                              : 28.1 KiB (0%)
Title                                    : Full
Language                                 : English
Default                                  : Yes
Forced                                   : No

Menu
00:00:00.000                             : :Chapter 01
00:07:56.976                             : :Chapter 02
00:09:21.477                             : :Chapter 03
00:12:18.821                             : :Chapter 04
00:15:09.408                             : :Chapter 05
00:22:50.035                             : :Chapter 06
00:26:09.401                             : :Chapter 07
00:29:56.461                             : :Chapter 08
00:36:38.905                             : :Chapter 09
00:41:28.694                             : :Chapter 10
00:49:59.246                             : :Chapter 11
00:57:18.226                             : :Chapter 12
01:03:00.610                             : :Chapter 13
01:09:28.581                             : :Chapter 14
01:17:19.259                             : :Chapter 15
01:19:51.828                             : :Chapter 16
01:26:31.978                             : :Chapter 17
Світлини





Особиста оцінка: 0 - не дивився
Джерело:



 Трекер:    Зареєстрований   

Завантажити / скачати фільм українською



відео для новачків



 Зареєстрований:   2019-01-11 14:12
 Розмір:   3.56 GB 
 Оцінка фільму:   8.7/10 (Голосів: 3)
   
Інші релізи
   Застрель їх / Shoot 'Em Up (2007) AVC Ukr/Eng | Sub Eng staf777  5 / 0   2.01 GB   2018-11-19 22:39 
   Застрель їх / Shoot 'Em Up (2007) 720p Ukr/Eng | Sub Eng staf777  0 / 0   6.61 GB   2018-11-19 16:54 
   Застрель їх / Shoot 'Em Up (2007) Blu-Ray Remux 1080p Ukr/Eng | Sub-Eng Kuzmenko  4 / 0   16.47 GB   2010-12-20 10:31 
   Застрель їх / Shoot 'Em Up (2007) mini 720p hellforces  1 / 0   1.92 GB   2010-07-29 00:49 
   Застрель їх / Shoot 'Em Up (2007) Ukr/Eng | Sub Ukr/Eng _oles  2 / 1   1.73 GB   2010-02-03 16:53 
І-р 
Свій


З нами з: 21.07.16
Востаннє: 17.11.19
Повідомлень: 65

2019-01-11 19:03  
Сюжет неймовірно безглуздий (за поданим описом). А як сам вільм?
Anonymous 







2019-01-11 21:24  
І-р написано:
А як сам вільм?

Не скажу, не дивився. Але як пишуть в інших релізах - дивитися можна)

MakRA 
VIP


З нами з: 10.11.18
Востаннє: 18.11.19
Повідомлень: 525

2019-01-12 10:15  
-Star-Lord-
Скажу так: фільм трешовий, але непоганий. Дивився пару раз. АЛЕ, на мою думку, в деяких картинах занадто літературне озвучення не завжди вдале. Повторюю, це особиста думка. Як в цьому фільмі і ще в "Святих із Бундока"

Ваш часовий пояс: GMT + 2 Години

Нова тема   Відповісти