Застрель їх / Shoot 'Em Up (2007) 1080p H.265 Ukr/Eng | Sub Eng

Нові коментарі

Нова тема   Відповісти
Автор Повідомлення
Anonymous 







2019-01-11 15:12  
Застрель їх / Shoot 'Em Up (2007) 1080p H.265 Ukr/Eng | Sub Eng

Застрель їх / Shoot 'Em Up (2007) 1080p H.265 Ukr/Eng | Sub Eng


Жанр: бойовик, комедія, трилер, кримінальний
Країна: США
Кінокомпанія: New Line Cinema
Режисер: Майкл Девіс / Michael Davis
Актори: Клайв Овен / Clive Owen, Пол Джаматті / Paul Giamatti, Моніка Беллуччі / Monica Bellucci, Стівен Макхетті / Stephen McHattie, Грег Брайк / Greg Bryk, Деніель Пілон / Daniel Pilon, Сідні Менде-Гібсон / Sidney Mende-Gibson та інші

Сюжет:
Головний герой Сміт, який не може забути трагічних подій свого минулого, стає випадковим свідком спроби вбивства молодої вагітної жінки. Під час божевільної перестрілки з бандитами породілля гине, а головний герой вирішує врятувати немовля. У результаті він опиняється вплутаним в урядову змову. Для догляду і нагляду за малюком Сміт звертається до своєї давньої знайомої, повії Донне Кінтана. Разом вони намагаються врятувати малюка і розкрити цю змову, в яку, як з'ясовується, вплутаний один з найвпливовіших чиновників...

Тривалість: 01:26:32
Якість:

Відео:
кодек: H.265 (HEVC)
розмір кадру: 1920 x 818
бітрейт: 10 928 кб/с
бітова глибина: 10 біт

Увага! Перед завантаженням переконайтесь, що ваш пристрій відтворення (та/або ПЗ) підтримує H.265 (HEVC)

Аудіо # 1:
мова: українська
переклад: багатоголосий закадровий
кодек: AC-3 5.1
бітрейт: 448 кб/с

Аудіо # 2:
мова: англійська
переклад: оригінал
кодек: 5.1
бітрейт: 1510 кб/с

Субтитри # 1-2: (Full v1, Full v2)
мова: англійська
тип: програмні (м'які)
формат: *.srt


Info
Код:
General
Unique ID                                : 216514454812446057523058148396063336735 (0xA2E32ACD1187F5E9DFD03BEDE489291F)
Complete name                            : Shoot 'Em Up (2007) 1080p H.265 [UKR_ENG] [Hurtom].
Format                                   :
Format version                           : Version 4
File size                                : 7.79 GiB
Duration                                 : 1 h 26 min
Overall bit rate                         : 12.9 Mb/s
Movie name                               : Застрель їх / Shoot 'Em Up (2007)
Encoded date                             : UTC 2020-08-03 14:32:04
Writing application                      : v20.0.0 ('I Am The Sun') 64-bit
Writing library                          : libebml v1.3.5 + v1.4.8
Cover                                    : Yes
Attachments                              : cover.jpg

Video
ID                                       : 1
Format                                   : HEVC
Format/Info                              : High Efficiency Video Coding
Format profile                           : Main [email protected]@Main
Codec ID                                 : V_MPEGH/ISO/HEVC
Duration                                 : 1 h 26 min
Bit rate                                 : 10.9 Mb/s
Width                                    : 1 920 pixels
Height                                   : 818 pixels
Display aspect ratio                     : 2.35:1
Frame rate mode                          : Constant
Frame rate                               : 23.976 (24000/1001) FPS
Color space                              : YUV
Chroma subsampling                       : 4:2:0
Bit depth                                : 10 bits
Bits/(Pixel*Frame)                       : 0.290
Stream size                              : 6.61 GiB (85%)
Title                                    : Застрель їх / Shoot 'Em Up (2007)
Writing library                          : x265 3.3+4-g85d84b2af:[Windows][MSVC 1925][64 bit] 10bit
Encoding settings                        : cpuid=1111039 / frame-threads=3 / numa-pools=8 / wpp / no-pmode / no-pme / no-psnr / no-ssim / log-level=2 / input-csp=1 / input-res=1920x818 / interlace=0 / total-frames=124488 / level-idc=0 / high-tier=1 / uhd-bd=0 / ref=5 / no-allow-non-conformance / no-repeat-headers / annexb / no-aud / no-hrd / info / hash=0 / no-temporal-layers / open-gop / min-keyint=23 / keyint=240 / gop-lookahead=0 / bframes=12 / b-adapt=2 / b-pyramid / bframe-bias=0 / rc-lookahead=60 / lookahead-slices=0 / scenecut=40 / hist-scenecut=0 / radl=0 / no-splice / no-intra-refresh / ctu=64 / min-cu-size=8 / rect / amp / max-tu-size=32 / tu-inter-depth=4 / tu-intra-depth=4 / limit-tu=1 / rdoq-level=2 / dynamic-rd=0.00 / no-ssim-rd / signhide / no-tskip / nr-intra=0 / nr-inter=0 / no-constrained-intra / no-strong-intra-smoothing / max-merge=5 / limit-refs=3 / no-limit-modes / me=3 / subme=7 / merange=57 / temporal-mvp / no-frame-dup / no-hme / weightp / weightb / no-analyze-src-pics / deblock=-3:-3 / no-sao / no-sao-non-deblock / rd=6 / selective-sao=0 / no-early-skip / rskip / no-fast-intra / no-tskip-fast / no-cu-lossless / b-intra / no-splitrd-skip / rdpenalty=0 / psy-rd=2.00 / psy-rdoq=1.00 / no-rd-refine / no-lossless / cbqpoffs=0 / crqpoffs=0 / rc=crf / crf=18.2 / qcomp=0.60 / qpstep=4 / stats-write=0 / stats-read=0 / ipratio=1.40 / pbratio=1.30 / aq-mode=4 / aq-strength=0.70 / no-cutree / zone-count=1 / zones: / start-frame=118022 / end-frame=124469 / qp=36 / no-strict-cbr / qg-size=32 / no-rc-grain / qpmax=69 / qpmin=0 / no-const-vbv / sar=1 / overscan=0 / videoformat=5 / range=0 / colorprim=2 / transfer=2 / colormatrix=2 / chromaloc=0 / display-window=0 / cll=0,0 / min-luma=0 / max-luma=1023 / log2-max-poc-lsb=8 / vui-timing-info / vui-hrd-info / slices=1 / no-opt-qp-pps / no-opt-ref-list-length-pps / no-multi-pass-opt-rps / scenecut-bias=0.00 / hist-threshold=0.01 / no-opt-cu-delta-qp / no-aq-motion / no-hdr10 / no-hdr10-opt / no-dhdr10-opt / no-idr-recovery-sei / analysis-reuse-level=0 / analysis-save-reuse-level=0 / analysis-load-reuse-level=0 / scale-factor=0 / refine-intra=0 / refine-inter=0 / refine-mv=1 / refine-ctu-distortion=0 / no-limit-sao / ctu-info=0 / no-lowpass-dct / refine-analysis-type=0 / copy-pic=1 / max-ausize-factor=1.0 / no-dynamic-refine / no-single-sei / no-hevc-aq / no-svt / no-field / qp-adaptation-range=1.00 / no-scenecut-aware-qpconformance-window-offsets / right=0 / bottom=0
Language                                 : English
Default                                  : Yes
Forced                                   : No

Audio #1
ID                                       : 2
Format                                   : AC-3
Format/Info                              : Audio Coding 3
Commercial name                          : Dolby Digital
Codec ID                                 : A_AC3
Duration                                 : 1 h 26 min
Bit rate mode                            : Constant
Bit rate                                 : 448 kb/s
Channel(s)                               : 6 channels
Channel layout                           : L R C LFE Ls Rs
Sampling rate                            : 48.0 kHz
Frame rate                               : 31.250 FPS (1536 SPF)
Compression mode                         : Lossy
Stream size                              : 277 MiB (3%)
Title                                    : / 5.1 Ch / 448 kbps / MVO / ICTV
Language                                 : Ukrainian
Service kind                             : Complete Main
Default                                  : Yes
Forced                                   : Yes

Audio #2
ID                                       : 3
Format                                   :
Format/Info                              : Digital Theater Systems
Codec ID                                 : A_DTS
Duration                                 : 1 h 26 min
Bit rate mode                            : Constant
Bit rate                                 : 1 509 kb/s
Channel(s)                               : 6 channels
Channel layout                           : C L R Ls Rs LFE
Sampling rate                            : 48.0 kHz
Frame rate                               : 93.750 FPS (512 SPF)
Bit depth                                : 24 bits
Compression mode                         : Lossy
Stream size                              : 934 MiB (12%)
Title                                    : / 5.1 Ch / 1509 kbps / Original
Language                                 : English
Default                                  : No
Forced                                   : No

Text #1
ID                                       : 4
Format                                   : UTF-8
Codec ID                                 : S_TEXT/UTF8
Codec ID/Info                            : UTF-8 Plain Text
Duration                                 : 1 h 20 min
Bit rate                                 : 53 b/s
Count of elements                        : 1015
Stream size                              : 31.6 KiB (0%)
Title                                    : Full v1
Language                                 : English
Default                                  : No
Forced                                   : No

Text #2
ID                                       : 5
Format                                   : UTF-8
Codec ID                                 : S_TEXT/UTF8
Codec ID/Info                            : UTF-8 Plain Text
Duration                                 : 1 h 18 min
Bit rate                                 : 48 b/s
Count of elements                        : 875
Stream size                              : 27.9 KiB (0%)
Title                                    : Full v2
Language                                 : English
Default                                  : No
Forced                                   : No

Menu
00:00:00.000                             : en:Main Titles
00:07:56.976                             : en:A Fine Mess
00:09:21.477                             : en:Restroom Rumble
00:12:18.821                             : en:Round and Round
00:15:09.408                             : en:Mother Figure
00:22:50.035                             : en:Road Rage
00:26:09.401                             : en:Shopping
00:29:56.461                             : en:Homebase Invasion
00:36:38.905                             : en:Heavy Metal Clinic
00:41:28.694                             : en:Bedtime
00:49:59.246                             : en:A Visit to Hammerson
00:57:18.226                             : en:Asphalt Showdown
01:03:00.610                             : en:The Unfriendly Skies
01:09:28.581                             : en:Considerable Agony
01:17:19.259                             : en:Epilogue
01:19:51.828                             : en:End Credits
01:26:31.978                             : en:End
Світлини




Джерело: &
Особиста оцінка: 0 - не дивився


 Трекер:    Зареєстрований   

Завантажити / скачати фільм українською



відео для новачків



 Зареєстрований:   2020-08-03 22:38
 Розмір:   7.79 GB 
 Оцінка фільму:   7.9/10 (Голосів: 7)
   
Інші релізи
   Застрель їх / Shoot 'Em Up (2007) AVC Ukr/Eng | Sub Eng staf777  2 / 0   2.01 GB   2018-11-19 23:39 
   Застрель їх / Shoot 'Em Up (2007) 720p Ukr/Eng | Sub Eng staf777  2 / 0   6.61 GB   2018-11-19 17:54 
   Застрель їх / Shoot 'Em Up (2007) Blu-Ray Remux 1080p Ukr/Eng | Sub-Eng Kuzmenko  4 / 0   16.47 GB   2010-12-20 11:31 
   Застрель їх / Shoot 'Em Up (2007) mini 720p hellforces  1 / 0   1.92 GB   2010-07-29 01:49 
   Застрель їх / Shoot 'Em Up (2007) Ukr/Eng | Sub Ukr/Eng _oles  1 / 3   1.73 GB   2010-02-03 17:53 
І-р 
Свій


З нами з: 21.07.16
Востаннє: 15.08.20
Повідомлень: 99

2019-01-11 20:03  
Сюжет неймовірно безглуздий (за поданим описом). А як сам вільм?
Anonymous 







2019-01-11 22:24  
І-р написано:
А як сам вільм?

Не скажу, не дивився. Але як пишуть в інших релізах - дивитися можна)

MakRA 
VIP


З нами з: 11.11.18
Востаннє: 15.08.20
Повідомлень: 1093

2019-01-12 11:15  
-Star-Lord-
Скажу так: фільм трешовий, але непоганий. Дивився пару раз. АЛЕ, на мою думку, в деяких картинах занадто літературне озвучення не завжди вдале. Повторюю, це особиста думка. Як в цьому фільмі і ще в "Святих із Бундока"

OlegPetruk 
Новенький


З нами з: 21.07.16
Востаннє: 11.08.20
Повідомлень: 12

2020-02-04 11:17  
10 хвилин вистачило щоб зрозуміти, що фільм - повна лажа.
Після сцени, коли головний герой стріляє по ніжкам слолу щоб той нахилився і можна було його викоритстати в якості трампліна, я зрозумів кого мені нагадав головний герой. Це ж супер-Маріо з 90х.
І цей бойовик такої ж якості 90х: пластмасовий і "бєспощадний"

Ваш часовий пояс: GMT + 2 Години

Нова тема   Відповісти