Не спати до Різдва (Партнери по безсонню) / No Sleep 'Til Christmas (2018) AVC Ukr/Eng

Нові коментарі

Нова тема   Відповісти
Автор Повідомлення
Anonymous 







2019-01-11 12:46  
Не спати до Різдва / Партнери по безсонню / No Sleep 'Til Christmas (2018) AVC Ukr/Eng

Не спати до Різдва (Партнери по безсонню) / No Sleep 'Til Christmas (2018) AVC Ukr/Eng


Жанр: мелодрама
Країна: США



Кінокомпанія: Freeform, Mass Hysteria Entertainment
Режисер: Філ Трейлл
Актори: Одет Еннейблр, Скотт Кавалхейро, Дейв Еннейблр, Бріттані Брістоу, Чарльз Майкл Девіс, Шеріль Лі Ральф, Джесіка Сальгулеро, Кевін Ганчард, Альфонсо Маколі та інші

Сюжет:
Що спільного між барменом та бізнесвумен? Відповідь - інсомнія.


Реліз без реклами


Тривалість: 01:25:19
Якість: AVC
Відео:
кодек:
розмір кадру: 1056 × 594
бітрейт: 1152 кб/с

Аудіо # 1:
мова: українська
переклад: багатоголосий закадровий
кодек: 2.0
бітрейт: 192 кб/с

Аудіо # 2:
мова: англійська
кодек: 2.0
бітрейт: 93 кб/с

Джерело озвучення:
DniproFilm
Info
General
Unique ID : 148637030163719432412962415558517529143 (0x6FD27362A1084A9F25750BA76DAF1A37)
Complete name : No Sleep 'Til Christmas (2018) [Ukr,Eng] AVC.
Format :
Format version : Version 4
File size : 877 MiB
Duration : 1 h 25 min
Overall bit rate : 1 436 kb/s
Encoded date : UTC 2019-01-10 22:46:26
Writing application : v30.1.0 ('Forever And More') 32-bit
Writing library : libebml v1.3.6 + v1.4.9

Video
ID : 1
Format : AVC
Format/Info : Advanced Video Codec
Format profile : [email protected]
Format settings : CABAC / 5 Ref Frames
Format settings, CABAC : Yes
Format settings, ReFrames : 5 frames
Codec ID : V_MPEG4/ISO/AVC
Duration : 1 h 25 min
Bit rate : 1 152 kb/s
Width : 1 056 pixels
Height : 594 pixels
Display aspect ratio : 16:9
Frame rate mode : Constant
Frame rate : 23.976 (24000/1001) FPS
Color space : YUV
Chroma subsampling : 4:2:0
Bit depth : 8 bits
Scan type : Progressive
Bits/(Pixel*Frame) : 0.077
Stream size : 701 MiB (80%)
Writing library : core 148 r2795 aaa9aa8
Encoding settings : cabac=1 / ref=5 / deblock=1:0:0 / analyse=0x3:0x113 / me=hex / subme=7 / psy=1 / psy_rd=1.00:0.00 / mixed_ref=1 / me_range=16 / chroma_me=1 / trellis=1 / 8x8dct=1 / cqm=0 / deadzone=21,11 / fast_pskip=1 / chroma_qp_offset=-2 / threads=8 / lookahead_threads=8 / sliced_threads=1 / slices=8 / nr=0 / decimate=1 / interlaced=0 / bluray_compat=0 / constrained_intra=0 / bframes=0 / weightp=2 / keyint=250 / keyint_min=23 / scenecut=40 / intra_refresh=0 / rc=abr / mbtree=0 / bitrate=1152 / ratetol=1.0 / qcomp=0.60 / qpmin=0 / qpmax=69 / qpstep=4 / ip_ratio=1.40 / aq=1:1.00
Default : Yes
Forced : No

Audio #1
ID : 2
Format : AC-3
Format/Info : Audio Coding 3
Commercial name : Dolby Digital
Codec ID : A_AC3
Duration : 1 h 25 min
Bit rate mode : Constant
Bit rate : 192 kb/s
Channel(s) : 2 channels
Channel layout : L R
Sampling rate : 48.0 kHz
Frame rate : 31.250 FPS (1536 SPF)
Bit depth : 16 bits
Compression mode : Lossy
Delay relative to video : -21 ms
Stream size : 117 MiB (13%)
Language : Ukrainian
Service kind : Complete Main
Default : Yes
Forced : Yes

Audio #2
ID : 3
Format : LC
Format/Info : Advanced Audio Codec Low Complexity
Codec ID : A_AAC-2
Duration : 1 h 25 min
Bit rate : 93.0 kb/s
Channel(s) : 2 channels
Channel layout : L R
Sampling rate : 48.0 kHz
Frame rate : 46.875 FPS (1024 SPF)
Compression mode : Lossy
Delay relative to video : -21 ms
Stream size : 56.8 MiB (6%)
Language : English
Default : No
Forced : No
Скріншоти






Джерело:


Авторський реліз (завантажувати можна без реєстрації)
 Трекер:    Зареєстрований   

Завантажити / скачати фільм українською



відео для новачків



 Зареєстрований:   2019-01-11 12:46
 Розмір:   877 MB 
 Оцінка фільму:   6.9/10 (Голосів: 12)
   
Anonymous 







2019-01-11 13:48  
Цитата:
Реліз без реклами

На відміну від цього релізу https://toloka.to/t98145 тут відео чисте, навіть без логотипів каналу і фріформу. Також є фінальні титри, які там чомусь пустили спочатку в зменшеному вигляді.

Цитата:
Змінено: 11FrYkT (2019-01-11 12:48)

Бачу, що чомусь змінили назву релізу
була
Не спати до Різдва / Партнери по безсонню / No Sleep 'Til Christmas (2018) AVC Ukr/Eng | Без реклами
Якщо забрали "Партнери по безсонню", то ще можу зрозуміти (хоч так переклала студія, послухайте у фільмі), то чим "Без реклами" не вгодило?

Додано через 48 хвилин 15 секунд:

Цитата:
то чим "Без реклами" не вгодило?

???
https://toloka.to/t201-360#1058632
leicheman написано:
Мо до назви та якості фільмів/ серіалів додавати (без реклами) до чистих релізів ДніпроФілм для полегшення пошуку який ріп качати?

igor911 написано:
leicheman, я не проти. Наприклад, в кінці назви теми додавати "| без реклами"

ced 
Свій


З нами з: 11.02.17
Востаннє: 24.01.19
Повідомлень: 85

2019-01-11 20:56  
Цей реліз відмічено як авторський - автор цього релізу є автором перекладу і озвучення?
leicheman 
Відео Гуртом - підтримка та поширення
Відео Гуртом - підтримка та поширення


З нами з: 03.07.14
Востаннє: 24.01.19
Повідомлень: 3253

2019-01-12 11:09  
ced написано:
Цей реліз відмічено як авторський - автор цього релізу є автором перекладу і озвучення?


Anonymous написано:

Джерело озвучення:
DniproFilm

Ваш часовий пояс: GMT + 2 Години

Нова тема   Відповісти