Спалення / Burning (2018) mini 720p Kor | Sub Ukr/Eng

Нові коментарі

Нова тема   Відповісти
Автор Повідомлення
YesNoMaybe 
Новенький


З нами з: 08.10.17
Востаннє: 21.01.19
Повідомлень: 4

2019-01-11 10:28  
Спалення / Burning (2018) mini 720p Kor | Sub Ukr/Eng

Спалення / Burning (2018) mini 720p Kor | Sub Ukr/Eng

Альтернативний постер


Жанр: містичний трилер, драма
Країна: Південна Корея



Кінокомпанія: Pinehouse Film, Now Film, NHK
Режисер: Лі Чхан Дон
Актори: Ю А Ін, Чон Джон Со, Стівен Ян та інші.

Сюжет:
Молодий кур’єр Лі Джон Су зустрічає дівчину Хае Мі, яка раніше жила в його селі. Незабаром вона летить в Африку та просить Лі Джон Су доглянути за її котом. Після повернення Хае Мі знайомить Джон Су з Беном — таємничим молодим багатієм, якого вона зустріла у Кенії. Одного разу Бен розповідає Джон Су про своє незвичне хобі. Після цього Джон Су охоплюють тривога та підозри.


Тривалість: 02:28:06
Якість:
Відео:
кодек:
розмір кадру: 1280 х 720
бітрейт: 3072 кб/с

Аудіо:
мова: корейська
переклад: оригінал
кодек: 2.0
бітрейт: 192 кб/с

Субтитри:
мова: українська
переклад: ScreenMy
тип: програмні (м'які)
формат: *.srt

Субтитри:
мова: англійська
тип: програмні (м'які)
формат: *.srt
Скріншоти
Info
Код:
General
Format                      : MPEG-4
Format profile              : Base Media
Codec ID                    : isom (isom/iso2/avc1/mp41)
File size                   : 3.38 GiB
Duration                    : 2 h 28 min
Overall bit rate            : 3 272 kb/s
Movie name                  : Burning (2018)
Writing application         : Lavf57.71.100

Video
ID                          : 1
Format                      : AVC
Format/Info                 : Advanced Video Codec
Format profile              : [email protected]
Format settings             : CABAC / 4 Ref Frames
Format settings, CABAC      : Yes
Format settings, ReFrames   : 4 frames
Format settings, GOP        : M=4, N=29
Codec ID                    : avc1
Codec ID/Info               : Advanced Video Coding
Duration                    : 2 h 28 min
Bit rate                    : 3 072 kb/s
Width                       : 1 280 pixels
Height                      : 720 pixels
Display aspect ratio        : 16:9
Frame rate mode             : Constant
Frame rate                  : 29.970 (30000/1001) FPS
Color space                 : YUV
Chroma subsampling          : 4:2:0
Bit depth                   : 8 bits
Scan type                   : Progressive
Bits/(Pixel*Frame)          : 0.111
Stream size                 : 3.18 GiB (94%)
Writing library             : core 148 r2768 d32d7bf
Encoding settings           : cabac=1 / ref=3 / deblock=1:0:0 / analyse=0x3:0x113 / me=hex / subme=8 / psy=1 / psy_rd=1.00:0.00 / mixed_ref=1 / me_range=16 / chroma_me=1 / trellis=2 / 8x8dct=1 / cqm=0 / deadzone=21,11 / fast_pskip=1 / chroma_qp_offset=-2 / threads=24 / lookahead_threads=4 / sliced_threads=0 / nr=0 / decimate=1 / interlaced=0 / bluray_compat=0 / stitchable=1 / constrained_intra=0 / bframes=3 / b_pyramid=2 / b_adapt=1 / b_bias=0 / direct=3 / weightb=1 / open_gop=0 / weightp=2 / keyint=29 / keyint_min=15 / scenecut=40 / intra_refresh=0 / rc_lookahead=29 / rc=2pass / mbtree=1 / bitrate=3072 / ratetol=1.0 / qcomp=0.60 / qpmin=0 / qpmax=69 / qpstep=4 / cplxblur=20.0 / qblur=0.5 / ip_ratio=1.40 / aq=1:1.00
Codec configuration box     : avcC

Audio
ID                          : 2
Format                      : LC
Format/Info                 : Advanced Audio Codec Low Complexity
Codec ID                    : mp4a-40-2
Duration                    : 2 h 28 min
Bit rate mode               : Constant
Bit rate                    : 192 kb/s
Channel(s)                  : 2 channels
Channel layout              : L R
Sampling rate               : 48.0 kHz
Frame rate                  : 46.875 FPS (1024 SPF)
Compression mode            : Lossy
Stream size                 : 203 MiB (6%)
Default                     : Yes
Alternate group             : 1
Субтитри та локалізація постерів: ScreenMy
Особиста оцінка: 9


Фріліч (завантажене не впливає на рейтинг)
 Трекер:    Зареєстрований   

Завантажити / скачати фільм українською



відео для новачків



 Зареєстрований:   2019-01-11 10:28
 Розмір:   3.38 GB 
 Оцінка фільму:   9.8/10 (Голосів: 5)
   
11FrYkT 
Модератор відео


З нами з: 20.02.11
Востаннє: 21.01.19
Повідомлень: 5426

2019-01-11 12:47  
YesNoMaybe , сам ріп іде з чорними смугами?
YesNoMaybe 
Новенький


З нами з: 08.10.17
Востаннє: 21.01.19
Повідомлень: 4

2019-01-11 13:37  
11FrYkT
так

Ваш часовий пояс: GMT + 2 Години

Нова тема   Відповісти