Мальтійський сокіл / The Maltese Falcon (1941) Remux 1080p Ukr/Eng | Sub Eng

Нові коментарі

Нова тема   Відповісти
Автор Повідомлення
MakRA 
VIP


З нами з: 10.11.18
Востаннє: 24.01.20
Повідомлень: 689

2019-01-10 21:06  
Мальтійський сокіл / The Maltese Falcon (1941) Remux 1080p Ukr/Eng | Sub Eng

Мальтійський сокіл / The Maltese Falcon (1941) Remux 1080p Ukr/Eng | Sub Eng

Альтернативні обкладинки:





Жанр: нуар, кримінальний, трилер, детектив
Країна: США



Кінокомпанія: Warner Bros. Pictures
Режисер: Джон Г'юстон [John Huston]
Актори: Гамфрі Богарт [Humphrey Bogart], Мері Астор [Mary Astor], Гледіс Джордж [Gladys George], Пітер Лорре [Peter Lorre], Сідні Ґрінстріт [Sydney Greenstreet], Бартон Маклейн [Barton MacLane], Ворд Бонд [Ward Bond], Лі Патрік [Lee Patrick], Джером Кауен [Jerome Cowan], Елайша Кук-молодший [Elisha Cook Jr.], Волтер Г'юстон [Walter Huston].

Сюжет:
Блискучий, нуарний ретро-детектив за мотивами однойменного роману Дешіла Хеммета.

За сюжетом, приватний детектив Сем Спейд веде смертельно небезпечне полювання за викраденою невідомими безцінною статуеткою "мальтійського сокола".

Робоча назва фільму була "Джентльмен із Фріско"


Тривалість: 01:40:33
Якість: Remux 1080p
Відео:
кодек:
розмір кадру: 1920 х 1080
бітрейт: 26.6 Mb/s

Аудіо # 1:
мова: українська
переклад: багатоголосий закадровий[1+1]
кодек: 2.0
бітрейт: 192 kb/s

Аудіо # 2:
мова: англійська
переклад: оригінал
кодек: -MA 1.0
бітрейт: 1 069 kb/s

Аудіо # 3:
мова: англійська
переклад: оригінал
кодек: 1.0
бітрейт: 192 kb/s

Субтитри:
мова: англійська
тип: пререндерні
формат: *.pgs
Info
General
Unique ID : 91488262155705586103568302699870182009 (0x44D3FF94D1E886E31CD6E049B3245A79)
Complete name : D:\Завантаження\The Maltese Falcon (1941) Remux 1080p UkrEng Sub Eng [Hurtom].
Format :
Format version : Version 4 / Version 2
File size : 19.7 GiB
Duration : 1 h 40 min
Overall bit rate : 28.0 Mb/s
Encoded date : UTC 2019-01-10 17:53:13
Writing application : v25.0.0 ('Prog Noir') 64-bit
Writing library : libebml v1.3.6 + v1.4.9

Video
ID : 1
Format : VC-1
Format profile : [email protected]
Codec ID : V_MS/VFW/FOURCC / WVC1
Codec ID/Hint : Microsoft
Duration : 1 h 40 min
Bit rate : 26.6 Mb/s
Width : 1 920 pixels
Height : 1 080 pixels
Display aspect ratio : 16:9
Frame rate mode : Constant
Frame rate : 23.976 (24000/1001) FPS
Color space : YUV
Chroma subsampling : 4:2:0
Bit depth : 8 bits
Scan type : Progressive
Compression mode : Lossy
Bits/(Pixel*Frame) : 0.534
Stream size : 18.7 GiB (95%)
Title : The Maltese Falcon (1941) Remux 1080p Ukr/Eng | Sub Eng
Language : Ukrainian
Default : Yes
Forced : Yes

Audio #1
ID : 2
Format : AC-3
Format/Info : Audio Coding 3
Format settings, Endianness : Big
Codec ID : A_AC3
Duration : 1 h 40 min
Bit rate mode : Constant
Bit rate : 192 kb/s
Channel(s) : 2 channels
Channel positions : Front: L R
Sampling rate : 48.0 kHz
Frame rate : 31.250 FPS (1536 SPF)
Bit depth : 16 bits
Compression mode : Lossy
Stream size : 138 MiB (1%)
Title : MVO [1+1]
Language : Ukrainian
Service kind : Complete Main
Default : Yes
Forced : Yes

Audio #2
ID : 3
Format :
Format/Info : Digital Theater Systems
Format profile : MA / Core
Mode : 16
Format settings, Endianness : Big
Codec ID : A_DTS
Duration : 1 h 40 min
Bit rate mode : Variable / Constant
Bit rate : 1 069 kb/s / 768 kb/s
Channel(s) : 1 channel
Channel positions : Front: C
Sampling rate : 48.0 kHz
Frame rate : 93.750 FPS (512 SPF)
Bit depth : 24 bits
Compression mode : Lossless / Lossy
Stream size : 769 MiB (4%)
Title : Original
Language : English
Default : No
Forced : No

Audio #3
ID : 4
Format : AC-3
Format/Info : Audio Coding 3
Format settings, Endianness : Big
Codec ID : A_AC3
Duration : 1 h 40 min
Bit rate mode : Constant
Bit rate : 192 kb/s
Channel(s) : 1 channel
Channel positions : Front: C
Sampling rate : 48.0 kHz
Frame rate : 31.250 FPS (1536 SPF)
Bit depth : 16 bits
Compression mode : Lossy
Stream size : 138 MiB (1%)
Title : Original
Language : English
Service kind : Complete Main
Default : No
Forced : No

Text
ID : 5
Format : PGS
Muxing mode : zlib
Codec ID : S_HDMV/PGS
Codec ID/Info : Picture based subtitle format used on BDs/HD-DVDs
Duration : 1 h 38 min
Bit rate : 49.9 kb/s
Count of elements : 3030
Stream size : 35.3 MiB (0%)
Title : Eng
Language : English
Default : No
Forced : No
Скріншоти
Джерело: &
Особиста оцінка: 10 - без зайвих вагань рекомендую всім!



Золотий реліз (завантажене не впливає на рейтинг)
 Трекер:    Зареєстрований   

Завантажити / скачати фільм українською



відео для новачків



 Зареєстрований:   2019-01-10 21:06
 Розмір:   19.7 GB 
 Оцінка фільму:   9.9/10 (Голосів: 8)
   
Інші релізи
Ваш часовий пояс: GMT + 2 Години

Нова тема   Відповісти