Ла Ла Ленд / La La Land (2016) 1080p H.265 2xUkr/Eng | Sub Ukr/Eng

Нові коментарі

Нова тема   Відповісти
Останній раз роздавалося McShvets (2019-01-24)
Автор Повідомлення
-Star-Lord- 
Попереджень: 1
Попереджень: 1 


З нами з: 09.08.18
Востаннє: 24.01.19
Повідомлень: 492

2019-01-10 18:31  
Ла Ла Ленд / La La Land (2016) 1080p H.265 2xUkr/Eng | Sub Ukr/Eng

Ла Ла Ленд / La La Land (2016) 1080p H.265 2xUkr/Eng | Sub Ukr/Eng


Жанр: комедія, драма, мюзикл
Країна: США
Кінокомпанія: Black Label Media, Gilbert Films, Impostor Pictures
Режисер: Дем'єн Шазелл
Актори: Раян Ґослінґ, Емма Стоун, Джон Ледженд, Дж.К. Сіммонс, Розмарі ДеВітт, Фінн Віттрок, Каллі Ернандес, С. Мідзуно, Джессіка Рот та інші

Сюжет:
Це історія кохання молодої акторки, яка між прослуховуваннями подає каву відомим кінозіркам, і фанатичного джазового музиканта, котрий змушений підробляти в заштатних барах. Але успіх, який прийшов до закоханих, починає підточувати їхні стосунки...

Тривалість: 02:07:48
Якість:
Відео:
кодек: H.265 (HEVC)
розмір кадру: 1920 x 752
бітрейт: 7 873 кб/с
частота кадрів: 23.976 fps
біт піксель: 0.227 BPP
бітова глибина: 10 біт
Увага! Перед завантаженням переконайтесь, що ваш пристрій відтворення (та/або ПЗ) підтримує H.265 (HEVC)

Аудіо # 1:
мова: українська
переклад: багатоголосий закадровий
кодек: 5.1
бітрейт: 1510 кб/с

Аудіо # 2:
мова: українська
переклад: професійний дубльований
кодек: AC-3 2.0
бітрейт: 192 кб/с

Аудіо # 3:
мова: англійська
переклад: оригінал
кодек: AC-3 5.1
бітрейт: 640 кб/с

Субтитри # 1:
мова: українська (Forced, Богдан Закордонець і Цікава Ідея),
тип: програмні (м'які)
формат: *.srt

Субтитри # 2:
мова: українська (Full, Богдан Закордонець і Цікава Ідея),
тип: програмні (м'які)
формат: *.srt

Субтитри # 3:
мова: англійська (Full),
тип: програмні (м'які)
формат: *.srt


Info
Код:
General
Unique ID                                : 155240442563940119072088372415178478491 (0x74CA38C0C433190AE6010CBFC328139B)
Complete name                            : G:\Video\Films\Collection\La La Land (2016) 1080p H.265 [2xUKR_ENG].
Format                                   :
Format version                           : Version 4 / Version 2
File size                                : 9.12 GiB
Duration                                 : 2 h 7 min
Overall bit rate                         : 10.2 Mb/s
Movie name                               : La La Land (2016)
Encoded date                             : UTC 2019-01-10 16:18:25
Writing application                      : v20.0.0 ('I Am The Sun') 32-bit
Writing library                          : libebml v1.3.5 + v1.4.8
Cover                                    : Yes
Attachments                              : cover.jpg

Video
ID                                       : 1
Format                                   : HEVC
Format/Info                              : High Efficiency Video Coding
Format profile                           : Main [email protected]@High
Codec ID                                 : V_MPEGH/ISO/HEVC
Duration                                 : 2 h 7 min
Bit rate                                 : 7 872 kb/s
Width                                    : 1 920 pixels
Height                                   : 752 pixels
Display aspect ratio                     : 2.553
Frame rate mode                          : Constant
Frame rate                               : 23.976 (24000/1001) FPS
Color space                              : YUV
Chroma subsampling                       : 4:2:0
Bit depth                                : 10 bits
Bits/(Pixel*Frame)                       : 0.227
Stream size                              : 7.03 GiB (77%)
Title                                    : La La Land (2016)
Writing library                          : x265 2.3+30-c7b7c736696f:[Windows][GCC 6.3.0][64 bit] 10bit
Encoding settings                        : cpuid=1173503 / frame-threads=3 / numa-pools=8 / wpp / no-pmode / no-pme / no-psnr / ssim / log-level=2 / input-csp=1 / input-res=1920x752 / interlace=0 / total-frames=0 / level-idc=41 / high-tier=1 / uhd-bd=0 / ref=6 / no-allow-non-conformance / repeat-headers / annexb / aud / hrd / info / hash=0 / no-temporal-layers / open-gop / min-keyint=23 / keyint=250 / bframes=10 / b-adapt=2 / b-pyramid / bframe-bias=0 / rc-lookahead=60 / lookahead-slices=1 / scenecut=40 / no-intra-refresh / ctu=64 / min-cu-size=8 / no-rect / no-amp / max-tu-size=32 / tu-inter-depth=3 / tu-intra-depth=3 / limit-tu=0 / rdoq-level=1 / dynamic-rd=2.00 / signhide / no-tskip / nr-intra=0 / nr-inter=0 / no-constrained-intra / no-strong-intra-smoothing / max-merge=2 / limit-refs=3 / no-limit-modes / me=1 / subme=7 / merange=64 / temporal-mvp / weightp / weightb / no-analyze-src-pics / deblock=-3:-3 / no-sao / no-sao-non-deblock / rd=4 / no-early-skip / no-rskip / no-fast-intra / no-tskip-fast / no-cu-lossless / no-b-intra / rdpenalty=0 / psy-rd=3.00 / psy-rdoq=2.00 / no-rd-refine / analysis-mode=0 / no-lossless / cbqpoffs=0 / crqpoffs=0 / rc=crf / crf=22.0 / qcomp=0.80 / qpstep=6 / stats-write=0 / stats-read=0 / vbv-maxrate=50000 / vbv-bufsize=50000 / vbv-init=0.9 / crf-max=0.0 / crf-min=0.0 / ipratio=1.50 / pbratio=1.00 / aq-mode=1 / aq-strength=0.80 / no-cutree / zone-count=0 / no-strict-cbr / qg-size=32 / no-rc-grain / qpmax=69 / qpmin=0 / sar=1 / overscan=0 / videoformat=5 / range=0 / colorprim=2 / transfer=2 / colormatrix=1 / chromaloc=0 / display-window=0 / max-cll=0,0 / min-luma=0 / max-luma=1023 / log2-max-poc-lsb=8 / vui-timing-info / vui-hrd-info / slices=1 / opt-qp-pps / opt-ref-list-length-pps / no-multi-pass-opt-rps / scenecut-bias=0.05 / no-opt-cu-delta-qp / aq-motion / no-hdr / no-hdr-opt / refine-level=5 / no-limit-sao
Default                                  : Yes
Forced                                   : Yes
Color range                              : Limited
Matrix coefficients                      : BT.709

Audio #1
ID                                       : 2
Format                                   :
Format/Info                              : Digital Theater Systems
Codec ID                                 : A_DTS
Duration                                 : 2 h 7 min
Bit rate mode                            : Constant
Bit rate                                 : 1 509 kb/s
Channel(s)                               : 6 channels
Channel positions                        : Front: L C R, Side: L R, LFE
Sampling rate                            : 48.0 kHz
Frame rate                               : 93.750 FPS (512 SPF)
Bit depth                                : 24 bits
Compression mode                         : Lossy
Stream size                              : 1.35 GiB (15%)
Title                                    : БЗ - Цікава Ідея
Language                                 : Ukrainian
Default                                  : Yes
Forced                                   : Yes

Audio #2
ID                                       : 3
Format                                   : AC-3
Format/Info                              : Audio Coding 3
Codec ID                                 : A_AC3
Duration                                 : 2 h 7 min
Bit rate mode                            : Constant
Bit rate                                 : 192 kb/s
Channel(s)                               : 2 channels
Channel positions                        : Front: L R
Sampling rate                            : 48.0 kHz
Frame rate                               : 31.250 FPS (1536 SPF)
Bit depth                                : 16 bits
Compression mode                         : Lossy
Stream size                              : 176 MiB (2%)
Title                                    : ПД - iTunes
Language                                 : Ukrainian
Service kind                             : Complete Main
Default                                  : No
Forced                                   : No

Audio #3
ID                                       : 4
Format                                   : AC-3
Format/Info                              : Audio Coding 3
Codec ID                                 : A_AC3
Duration                                 : 2 h 7 min
Bit rate mode                            : Constant
Bit rate                                 : 640 kb/s
Channel(s)                               : 6 channels
Channel positions                        : Front: L C R, Side: L R, LFE
Sampling rate                            : 48.0 kHz
Frame rate                               : 31.250 FPS (1536 SPF)
Bit depth                                : 16 bits
Compression mode                         : Lossy
Stream size                              : 585 MiB (6%)
Title                                    : Original
Language                                 : English
Service kind                             : Complete Main
Default                                  : No
Forced                                   : No

Text #1
ID                                       : 5
Format                                   : UTF-8
Codec ID                                 : S_TEXT/UTF8
Codec ID/Info                            : UTF-8 Plain Text
Duration                                 : 1 h 53 min
Bit rate                                 : 13 b/s
Count of elements                        : 221
Stream size                              : 11.1 KiB (0%)
Title                                    : Forced
Language                                 : Ukrainian
Default                                  : Yes
Forced                                   : Yes

Text #2
ID                                       : 6
Format                                   : UTF-8
Codec ID                                 : S_TEXT/UTF8
Codec ID/Info                            : UTF-8 Plain Text
Duration                                 : 1 h 59 min
Bit rate                                 : 65 b/s
Count of elements                        : 1030
Stream size                              : 57.3 KiB (0%)
Title                                    : Full
Language                                 : Ukrainian
Default                                  : No
Forced                                   : No

Text #3
ID                                       : 7
Format                                   : UTF-8
Codec ID                                 : S_TEXT/UTF8
Codec ID/Info                            : UTF-8 Plain Text
Duration                                 : 1 h 59 min
Bit rate                                 : 36 b/s
Count of elements                        : 1091
Stream size                              : 31.6 KiB (0%)
Title                                    : Full
Language                                 : English
Default                                  : No
Forced                                   : No

Menu
00:00:00.000                             : en:00:00:00.000
00:07:06.926                             : en:00:07:06.926
00:17:30.883                             : en:00:17:30.883
00:26:05.856                             : en:00:26:05.856
00:31:14.039                             : en:00:31:14.039
00:39:29.075                             : en:00:39:29.075
00:46:17.566                             : en:00:46:17.566
00:52:11.170                             : en:00:52:11.170
00:58:50.360                             : en:00:58:50.360
01:05:58.580                             : en:01:05:58.580
01:13:01.293                             : en:01:13:01.293
01:24:16.301                             : en:01:24:16.301
01:31:50.880                             : en:01:31:50.880
01:41:10.981                             : en:01:41:10.981
01:46:07.611                             : en:01:46:07.611
01:56:19.598                             : en:01:56:19.598
Світлини




Джерело:
Особиста оцінка: 6 - третій сорт - не брак


>>> Усі мої релізи <<<



Авторський реліз (завантажувати можна без реєстрації)
 Трекер:    Зареєстрований   

Завантажити / скачати фільм українською



відео для новачків



 Зареєстрований:   2019-01-10 18:31
 Розмір:   9.12 GB 
 Оцінка фільму:   7.8/10 (Голосів: 8)
   
Інші релізи
   Ла Ла Ленд / La La Land (2016) 1080p H.265 2xUkr/Eng | Sub Ukr/Eng ukr_anonymous  6 / 0   6.59 GB   2018-07-31 15:43 
   Ла Ла Ленд / La La Land (2016) Remux 1080p 2xUkr/Eng | Sub Ukr/Eng staf777  1 / 0   29.65 GB   2018-03-01 12:11 
   Ла Ла Ленд / La La Land (2016) AVC 2xUkr BASTERD-94  4 / 0   2.25 GB   2017-04-25 20:34 
   Ла Ла Ленд / La La Land (2016) 2xUkr Gelios  19 / 0   2.18 GB   2017-04-23 11:52 
   Ла Ла Ленд / La La Land (2016) AVC 2xUkr/Eng | Sub Ukr/Eng Electroz  18 / 0   2.35 GB   2017-04-22 22:20 
   Ла-Ла Ленд (Ла Ла Ленд) / La La Land (2016) 720p 2xUkr/Eng | Sub Ukr/Eng Patriot_ukr  22 / 0   7.65 GB   2017-04-22 18:53 
   Ла Ла Ленд / La La Land (2016) 1080p 2xUkr/Eng | Sub Ukr/Eng Electroz  7 / 0   16.09 GB   2017-04-22 12:20 
Ваш часовий пояс: GMT + 2 Години

Нова тема   Відповісти