Знедолені (Сезон 1) / Les Miserables (Season 1) (2018)

Нові коментарі

Нова тема   Відповісти
Останній раз роздавалося Академік (2019-07-17)
Автор Повідомлення
DniproFilm 
VIP


З нами з: 10.10.18
Востаннє: 13.07.19
Повідомлень: 251

2019-01-10 17:22  
Знедолені (Сезон 1) / Les Miserables (Season 1) (2018)

Знедолені (Сезон 1) / Les Miserables (Season 1) (2018)


Жанр: драма, мелодрама, історичний
Країна: США, Велика Британія



Кінокомпанія / телеканал: Lookout Point Ltd, British Broadcasting Corporation (BBC), BBC One
Режисер: Том Шенкленд
Актори/ролі озвучують: Домінік Вест, Лілі Коллінз, Дональд Самптер, Еллі Бембер, Девід Ойелоуо, Аділь Ахтар, Олівія Колман, Алекс Джарретт, Ерін Келіман, Джош О'Коннор, Джозеф Квінн, Ріс Йейтс та інші

Сюжет:
Телевізійна адаптація класичного роману Віктора Гюго про протистояння колишнього каторжника Жана Вальжана і інспектора Жавера на тлі пост-наполеонівської Франції початку XIX століття.


Тривалість: 1 серія: ~ 60 хв. (цілком серій: 6)
Перелік серій

1. Episode 1.1
2. Episode 1.2
3. Episode 1.3
4. Episode 1.4
5. Episode 1.5
6. Episode 1.6
Якість:
Відео:
кодек:
розмір кадру: 720x360
бітрейт: ~1800 кб/с

Аудіо # 1:
мова: українська
переклад: багатоголосий закадровий
кодек: 2.0
бітрейт: 192 кб/с

Джерело озвучення:
DniproFilm
Info

Video
ID : 0
Format : MPEG-4 Visual
Format profile : Advanced [email protected]
Format settings : BVOP2
Format settings, BVOP : 2
Format settings, QPel : No
Format settings, GMC : No warppoints
Format settings, Matrix : Default (H.263)
Muxing mode : Packed bitstream
Codec ID :
Codec ID/Hint :
Duration : 1 h 0 min
Bit rate : 1 783 kb/s
Width : 720 pixels
Height : 360 pixels
Display aspect ratio : 2.000
Frame rate : 25.000 FPS
Color space : YUV
Chroma subsampling : 4:2:0
Bit depth : 8 bits
Scan type : Progressive
Compression mode : Lossy
Bits/(Pixel*Frame) : 0.275
Stream size : 766 MiB (90%)
Writing library : 67

Audio
ID : 1
Format : AC-3
Format/Info : Audio Coding 3
Commercial name : Dolby Digital
Codec ID : 2000
Duration : 1 h 0 min
Bit rate mode : Constant
Bit rate : 192 kb/s
Channel(s) : 2 channels
Channel positions : Front: L R
Sampling rate : 48.0 kHz
Frame rate : 31.250 FPS (1536 SPF)
Bit depth : 16 bits
Compression mode : Lossy
Stream size : 82.4 MiB (10%)
Alignment : Aligned on interleaves
Interleave, duration : 40 ms (1.00 video frame)
Interleave, preload duratio : 512 ms
Service kind : Complete Main
Скріншоти


Увага, присутня відео та аудіореклама.


Джерело: DniproFilm


Авторський реліз (завантажувати можна без реєстрації)
 Трекер:    Зареєстрований   

Завантажити / скачати серіал українською



відео для новачків



 Зареєстрований:   2019-02-18 17:40
 Розмір:   4.93 GB 
 Оцінка серіалу:   10/10 (Голосів: 14)
   
Vitt 
Свій


З нами з: 17.01.11
Востаннє: 17.07.19
Повідомлень: 75

2019-01-10 18:43  
Роман читав дуже давно, але щось не пригадую чорношкірих серед персонажів.
don pedro 
Попереджень: 1
Попереджень: 1 


З нами з: 29.06.11
Востаннє: 16.07.19
Повідомлень: 13996

2019-01-10 18:44  
Лілі Коллінз - завжди добре.
[email protected] 
Новенький


З нами з: 28.05.15
Востаннє: 24.06.19
Повідомлень: 8

2019-01-11 17:23  
don pedro
Так, чудова актриса!!!

Silver Warden 
Поважний учасник


З нами з: 02.01.18
Востаннє: 17.07.19
Повідомлень: 221

2019-01-11 19:29  
Мені дуже важко уявити собі чорношкірого інспектора поліції у Франції тих часів. На Бродвеї, звісно, цю роль грали люди різних рас, але там можна багато-чого пробачити, бо мюзикли самі собою не претендують на історичну достовірність. А ось подібні серіали такими рішеннями створюють хибне враження про ті часи.
DniproFilm 
VIP


З нами з: 10.10.18
Востаннє: 13.07.19
Повідомлень: 251

2019-01-26 23:23  
УВАГА! РЕЛІЗ ОНОВЛЕНО! (26.01.2019). Додано 4 серію.

DniproFilm 
VIP


З нами з: 10.10.18
Востаннє: 13.07.19
Повідомлень: 251

2019-02-07 14:41  
УВАГА! РЕЛІЗ ОНОВЛЕНО! (07.02.2019). Додано 5 серію.

DniproFilm 
VIP


З нами з: 10.10.18
Востаннє: 13.07.19
Повідомлень: 251

2019-02-18 17:42  
УВАГА! РЕЛІЗ ОНОВЛЕНО! (18.02.2019). Додано 6 серію (фінал сезону).

rev123 
Новенький


З нами з: 05.04.13
Востаннє: 01.07.19
Повідомлень: 18

2019-02-18 21:15  
Кіно і мавпи... Французька революція звісно спричинила подальшу негризацію Франції, але ж не одразу!)))
nataliksa 
Свій


З нами з: 18.04.14
Востаннє: 14.07.19
Повідомлень: 50

2019-02-19 11:35  
Домінік Вест,вау! Треба подивитись.
Доктор Борменталь 
Новенький


З нами з: 02.12.15
Востаннє: 29.06.19
Повідомлень: 3

2019-03-24 12:05  
Гюго - геній, його неможливо екранізувати.
Ваш часовий пояс: GMT + 2 Години

Нова тема   Відповісти