Знедолені (Сезон 1, серії 1-3) / Les Miserables (Season 1, episodes 1-3) (2018) 1080p Ukr/Eng

Нові коментарі

Нова тема   Відповісти
Автор Повідомлення
DniproFilm 
VIP


З нами з: 10.10.18
Востаннє: 24.01.19
Повідомлень: 279

2019-01-10 16:21  
Знедолені (Сезон 1, серії 1-3) / Les Miserables (Season 1, episodes 1-3) (2018) 1080p Ukr/Eng

Знедолені (Сезон 1, серії 1-3) / Les Miserables (Season 1, episodes 1-3) (2018) 1080p Ukr/Eng


Жанр: драма, мелодрама, історія
Країна: США, Великобритания


Кінокомпанія / телеканал: Lookout Point Ltd, British Broadcasting Corporation (BBC), BBC One

Режисер: Том Шенкленд
Актори/ролі озвучують: Домінік Вест, Лілі Коллінз, Дональд Самптер, Еллі Бембер, Девід Ойелоуо, Аділь Ахтар, Олівія Колман, Алекс Джарретт, Ерін Келіман, Джош О’Коннор, Джозеф Квінн, Ріс Йейтс та інші

Сюжет:
Телевізійна адаптація класичного роману Віктора Гюго про протистояння колишнього каторжника Жана Вальжана і інспектора Жавера на тлі пост-наполеонівської Франції початку XIX століття.


Тривалість: 1 серія: ~ 60 хв. (цілком серій: 6)
Перелік серій

1. Episode 1.1
2. Episode 1.2
3. Episode 1.3
4. Episode 1.4
5. Episode 1.5
6. Episode 1.6
Якість:
Відео:
кодек:
розмір кадру: 1920x960
бітрейт: ~7000 кб/с

Аудіо # 1:
мова: українська
переклад: багатоголосий закадровий
кодек: 2.0
бітрейт: 192 кб/с

Аудіо # 2:
мова: англійська
переклад: оригінал
кодек: 2.0
бітрейт: 384 кб/с

Джерело озвучення:
DniproFilm
Info

Video
ID : 1
Format : AVC
Format/Info : Advanced Video Codec
Format profile : [email protected]
Format settings : CABAC / 4 Ref Frames
Format settings, CABAC : Yes
Format settings, ReFrames : 4 frames
Codec ID : V_MPEG4/ISO/AVC
Duration : 1 h 0 min
Bit rate : 6 969 kb/s
Width : 1 920 pixels
Height : 960 pixels
Display aspect ratio : 2.000
Frame rate mode : Constant
Frame rate : 25.000 FPS
Standard : PAL
Color space : YUV
Chroma subsampling : 4:2:0
Bit depth : 8 bits
Scan type : Progressive
Bits/(Pixel*Frame) : 0.151
Stream size : 2.92 GiB (92%)
Language : English
Default : Yes
Forced : No
Color range : Limited
Color primaries : BT.709
Transfer characteristics : BT.709
Matrix coefficients : BT.709

Audio #1
ID : 2
Format : AC-3
Format/Info : Audio Coding 3
Commercial name : Dolby Digital
Codec ID : A_AC3
Duration : 1 h 0 min
Bit rate mode : Constant
Bit rate : 192 kb/s
Channel(s) : 2 channels
Channel positions : Front: L R
Sampling rate : 48.0 kHz
Frame rate : 31.250 FPS (1536 SPF)
Bit depth : 16 bits
Compression mode : Lossy
Stream size : 82.4 MiB (3%)
Title : DniproFilm
Language : Ukrainian
Service kind : Complete Main
Default : Yes
Forced : No

Audio #2
ID : 3
Format : AC-3
Format/Info : Audio Coding 3
Codec ID : A_AC3
Duration : 59 min 30 s
Bit rate : 384 kb/s
Channel(s) : 2 channels
Sampling rate : 48.0 kHz
Frame rate : 31.250 FPS (1536 SPF)
Compression mode : Lossy
Stream size : 163 MiB (5%)
Language : English
Default : No
Forced : No
Скріншоти


Увага, присутня відео та аудіореклама.


Джерело: DniproFilm


Авторський реліз (завантажувати можна без реєстрації)
 Трекер:    Зареєстрований   

Завантажити / скачати серіал українською



відео для новачків



 Зареєстрований:   2019-01-21 16:40
 Розмір:   9.43 GB 
 Оцінка серіалу:   10/10 (Голосів: 3)
   
Каніс Люпус 
Новенький


З нами з: 13.11.12
Востаннє: 23.01.19
Повідомлень: 2

2019-01-12 22:04  
Допоможіть зі швидкістю хтось, будь ласка.
DniproFilm 
VIP


З нами з: 10.10.18
Востаннє: 24.01.19
Повідомлень: 279

2019-01-21 16:42  
УВАГА! РЕЛІЗ ОНОВЛЕНО! (21.01.2019). Додано 3 серію.

Ваш часовий пояс: GMT + 2 Години

Нова тема   Відповісти