Ніколи не говори "ніколи" (Джеймс Бонд Агент 007 James Bond) / Never Say Never Again (1983) Remux 1080p 2xUkr/Eng | Sub Eng

Нові коментарі

Нова тема   Відповісти
Автор Повідомлення
MakRA 
VIP


З нами з: 11.11.18
Востаннє: 24.09.20
Повідомлень: 1120

2019-01-10 16:03  
Ніколи не говори "ніколи" (Джеймс Бонд Агент 007 James Bond) / Never Say Never Again (1983) Remux 1080p 2xUkr/Eng | Sub Eng


Альтернативні обкладинки та постери:







Жанр: бойовик, екшн, пригодницький, трилер
Країна: США , Велика Британія , Німеччина



Кінокомпанія: TaliaFilm II Productions, Woodcote, Producers Sales Organization (PSO)
Режисер: Ірвін Кершнер [Irvin Kershner]
Актори: Шон Коннері (Sean Connery), Кім Бейсінґер (Kim Basinger), Едвард Фокс [Edward Fox], Макс фон Сюдов [Max von Sydow], Барбара Каррера [Barbara Carrera], Клаус Марія Брандауер [Klaus Maria Brandauer], Ровен Аткінсон [Rowan Sebastian Atkinson], Берні Кейсі [Bernie Casey].

Сюжет:
Позачергова серія пригод всесвітньо відомого агента британської спецслужби МІ-8 являє собою окрему від «офіційних» стрічок картину, яка пережила численні судові позови, але все-таки побачила світ.
Також примітна вона тим, що повернула першого виконавця ролі Джеймса Бонда - Шона Коннері в лад через вісімнадцять років, ставши в той же час останнім екранним втіленням актора в ролі культового спецагента.

Озброєний новітніми смертоносними розробками, незмінно оточений як чарівно милими, так і фатальними красунями, Джеймс Бонд неперевершений у звичній для себе стихії непримиренної боротьби зі злом.


Тривалість: 02:14:06
Якість: Remux 1080p
Відео:
кодек:
розмір кадру: 1920 х 1080
бітрейт: 35 Мб/с

Аудіо # 1:
мова: українська
переклад: багатоголосий закадровий
кодек: 5.1
бітрейт: 384 kb/s

Аудіо # 2:
мова: українська
переклад: багатоголосий закадровий
кодек: 2.0
бітрейт: 192 kb/s

Аудіо # 3:
мова: українська
переклад: двоголосий закадровий
кодек: 2.0
бітрейт: 192 kb/s
примітка: присутні 5 вставок з озвучення ICTV.
Про озвучення:
Ролі озвучили: Олег Стальчук та Інна Капінос.
Аудіо # 4:
мова: англійська
переклад: оригінал
кодек: -HD MA 5.1
бітрейт: 3 649 kb/s

Аудіо # 5:
мова: англійська
переклад: оригінал
кодек: 5.1
бітрейт: 384 kb/s

Субтитри # 1-2: (Full) | (SDH)
мова: англійська
тип: програмні (м'які)
формат: *.srt

Субтитри # 3: (SDH)
мова: англійська
тип: пререндерні
формат: *.pgs

Збережено оригінальні іменовані розділи, як на Blu-ray.
Info
General
Unique ID : 252520450651131577674045731007542475712 (0xBDF9AB7499799D560898D66542B23BC0)
Complete name : I:\James Bond Movie Collection\James Bond Never Say Never Again (1983) Remux 1080p 2xUkrEng Sub Eng [Hurtom].
Format :
Format version : Version 4
File size : 37.3 GiB
Duration : 2 h 14 min
Overall bit rate mode : Variable
Overall bit rate : 39.8 Mb/s
Movie name : Джеймс Бонд. Агент 007: Ніколи не говори "ніколи" / James Bond: Never Say Never Again (1983) Remux 1080p 2xUkr/Eng | Sub Eng [Hurtom]
Encoded date : UTC 2020-04-30 22:23:31
Writing application : v44.0.0 ('Domino') 64-bit
Writing library : libebml v1.3.10 + v1.5.2
Cover : Yes
Attachments : cover.jpg

Video
ID : 1
Format : AVC
Format/Info : Advanced Video Codec
Format profile : [email protected]
Format settings : CABAC / 4 Ref Frames
Format settings, CABAC : Yes
Format settings, Reference : 4 frames
Codec ID : V_MPEG4/ISO/AVC
Duration : 2 h 14 min
Bit rate mode : Variable
Bit rate : 35.0 Mb/s
Maximum bit rate : 40.0 Mb/s
Width : 1 920 pixels
Height : 1 080 pixels
Display aspect ratio : 16:9
Frame rate mode : Constant
Frame rate : 23.976 (24000/1001) FPS
Color space : YUV
Chroma subsampling : 4:2:0
Bit depth : 8 bits
Scan type : Progressive
Bits/(Pixel*Frame) : 0.703
Stream size : 32.7 GiB (88%)
Title : James Bond: Never Say Never Again (1983) Remux 1080p 2xUkr/Eng | Sub Eng [Hurtom]
Language : Ukrainian
Default : Yes
Forced : Yes
Color range : Limited
Color primaries : BT.709
Transfer characteristics : BT.709
Matrix coefficients : BT.709

Audio #1
ID : 2
Format : AC-3
Format/Info : Audio Coding 3
Commercial name : Dolby Digital
Codec ID : A_AC3
Duration : 2 h 14 min
Bit rate mode : Constant
Bit rate : 384 kb/s
Channel(s) : 6 channels
Channel layout : L R C LFE Ls Rs
Sampling rate : 48.0 kHz
Frame rate : 31.250 FPS (1536 SPF)
Compression mode : Lossy
Stream size : 368 MiB (1%)
Title : MVO [ICTV] 5.1
Language : Ukrainian
Service kind : Complete Main
Default : Yes
Forced : Yes

Audio #2
ID : 3
Format : AC-3
Format/Info : Audio Coding 3
Commercial name : Dolby Digital
Codec ID : A_AC3
Duration : 2 h 14 min
Bit rate mode : Constant
Bit rate : 192 kb/s
Channel(s) : 2 channels
Channel layout : L R
Sampling rate : 48.0 kHz
Frame rate : 31.250 FPS (1536 SPF)
Compression mode : Lossy
Stream size : 184 MiB (0%)
Title : MVO [ICTV] 2.0
Language : Ukrainian
Service kind : Complete Main
Default : No
Forced : No

Audio #3
ID : 4
Format : AC-3
Format/Info : Audio Coding 3
Commercial name : Dolby Digital
Codec ID : A_AC3
Duration : 2 h 14 min
Bit rate mode : Constant
Bit rate : 192 kb/s
Channel(s) : 2 channels
Channel layout : L R
Sampling rate : 48.0 kHz
Frame rate : 31.250 FPS (1536 SPF)
Compression mode : Lossy
Stream size : 184 MiB (0%)
Title : DVO [ІНТЕР] 2.0
Language : Ukrainian
Service kind : Complete Main
Default : No
Forced : No

Audio #4
ID : 5
Format : XLL
Format/Info : Digital Theater Systems
Commercial name : -HD Master Audio
Codec ID : A_DTS
Duration : 2 h 14 min
Bit rate mode : Variable
Bit rate : 3 649 kb/s
Channel(s) : 6 channels
Channel layout : C L R Ls Rs LFE
Sampling rate : 48.0 kHz
Frame rate : 93.750 FPS (512 SPF)
Bit depth : 24 bits
Compression mode : Lossless
Stream size : 3.42 GiB (9%)
Title : Original -HD MA 5.1
Language : English
Default : No
Forced : No

Audio #5
ID : 6
Format : AC-3
Format/Info : Audio Coding 3
Commercial name : Dolby Digital
Codec ID : A_AC3
Duration : 2 h 14 min
Bit rate mode : Constant
Bit rate : 384 kb/s
Channel(s) : 6 channels
Channel layout : L R C LFE Ls Rs
Sampling rate : 48.0 kHz
Frame rate : 31.250 FPS (1536 SPF)
Compression mode : Lossy
Stream size : 368 MiB (1%)
Title : Original 5.1
Language : English
Service kind : Complete Main
Default : No
Forced : No

Text #1
ID : 7
Format : UTF-8
Codec ID : S_TEXT/UTF8
Codec ID/Info : UTF-8 Plain Text
Duration : 2 h 11 min
Bit rate : 32 b/s
Count of elements : 1024
Stream size : 31.3 KiB (0%)
Title : Eng (Full) SRT
Language : English
Default : No
Forced : No

Text #2
ID : 8
Format : UTF-8
Codec ID : S_TEXT/UTF8
Codec ID/Info : UTF-8 Plain Text
Duration : 2 h 11 min
Bit rate : 36 b/s
Count of elements : 1143
Stream size : 35.1 KiB (0%)
Title : Eng (SDH) SRT
Language : English
Default : No
Forced : No

Text #3
ID : 9
Format : PGS
Muxing mode : zlib
Codec ID : S_HDMV/PGS
Codec ID/Info : Picture based subtitle format used on BDs/HD-DVDs
Duration : 2 h 12 min
Bit rate : 24.4 kb/s
Count of elements : 2286
Stream size : 23.1 MiB (0%)
Title : Eng (SDH) PGS
Language : English
Default : No
Forced : No

Menu
00:00:00.000 : en:Logo/Title/Intro
00:04:17.173 : en:Purge Those Toxins
00:07:35.455 : en:Spectre HQ
00:10:18.284 : en:Physical Relations
00:12:53.689 : en:One Hell Of A Nurse
00:16:07.007 : en:Basic Training
00:23:00.462 : en:The Blink Of An Eye
00:27:06.499 : en:What A Snake
00:28:33.962 : en:Diverting Missiles
00:31:17.709 : en:Worldwide Panic
00:37:06.974 : en:The Tears Of Allah
00:40:30.010 : en:No Money For Q
00:43:05.165 : en:Foreign But Charming
00:45:41.905 : en:Fishing Expedition
00:49:03.023 : en:A Shark View
00:53:33.627 : en:An Awkward Moment
00:56:18.083 : en:Nice's Nice View
00:59:38.700 : en:'Hard Or Soft?'
01:04:25.820 : en:The Challenge
01:09:58.360 : en:Playing For Domino
01:17:21.595 : en:Bad News Tango
01:20:15.227 : en:The New Bike
01:25:33.920 : en:Fatima's Legacy
01:30:16.661 : en:Lunch?
01:34:48.349 : en:Betrayed With A Kiss
01:38:34.533 : en:A Gift For The Damned
01:41:19.156 : en:Selling Domino
01:49:31.189 : en:Other Plans
01:51:40.652 : en:Map Of The Tears
01:57:33.796 : en:Clearing The Cave
02:04:21.996 : en:Underwater Battle
02:08:05.177 : en:Never Again/Credits
Скріншоти
Джерело: &
Висловлюю подяку п. Bohdan237, п. kryk-v.ya за роботу над звуком
Особиста оцінка: 10 - без зайвих вагань рекомендую всім!




Золотий реліз (завантажене не впливає на рейтинг)
 Трекер:    Зареєстрований   

Завантажити / скачати фільм українською



відео для новачків



 Зареєстрований:   2020-05-01 02:07
 Розмір:   37.26 GB 
 Оцінка фільму:   9.3/10 (Голосів: 10)
   
21jumpstreet 
VIP


З нами з: 03.07.12
Востаннє: 24.09.20
Повідомлень: 1233

2020-04-29 17:25  
Незабаром буде ще одне озвучення від інтера
MakRA 
VIP


З нами з: 11.11.18
Востаннє: 24.09.20
Повідомлень: 1120

2020-05-01 02:13  
Реліз оновлено 01.05.2020
Додано доріжку від ІНТЕР, доріжку 2.0 від ICTV, іменовані розділи, оригінальні SDH субтитри

Ваш часовий пояс: GMT + 2 Години

Нова тема   Відповісти