Білий хлопець Рік / White Boy Rick (2018) 1080p Ukr/Eng | Sub Eng

Нові коментарі

Нова тема   Відповісти
Автор Повідомлення
staf777 
Попереджень: 1
Попереджень: 1 


З нами з: 16.11.16
Востаннє: 15.01.19
Повідомлень: 2053

2019-01-10 14:56  
Білий хлопець Рік / White Boy Rick (2018) 1080p Ukr/Eng | Sub Eng

Білий хлопець Рік / White Boy Rick (2018) 1080p Ukr/Eng | Sub Eng


Жанр: драма, кримінальний
Країна: США



Кінокомпанія: LBI Productions, Protozoa Pictures, Studio 8
Режисер: Ян Деманж
Актори: Метью МакКонахі, Річі Мерріт, Бел Паулі, Дженіфер Джейсон Лі, Брайан Тайрі Генрі, Рорі Кокрейн, АрДжей Сайлер, Джонатан Мейджерс, Едді Марсан, Тейлор Пейдж та інші

Сюжет:
Заснована на реальних подіях історія життя Річарда Верша-молодшого, котрий у 80-ті роки минулого століття працював
"під прикриттям" на поліцію, потім сам став наркодилером, був заарештований та засудженний на довічне ув'язнення.


Реліз без реклами


Тривалість: 01:51:06
Якість: 1080p
Відео:
кодек:
розмір кадру: 1920x808
бітрейт: 8 727 кб/с

Аудіо # 1:
мова: українська
переклад: багатоголосий закадровий | DniproFilm
кодек: 5.1
бітрейт: 640 кб/с

Аудіо # 2:
мова: англійська
переклад: оригінал
кодек: 5.1
бітрейт: 1509 кб/с

Субтитри:
мова: англійська
тип: програмні (м'які)
формат: *.srt
Info

General
Unique ID : 33253507754172990609974687623289650852 (0x19046483A8E1AB85337C79B910CA3EA4)
Complete name : P:\HD українською » Фільми в HD\Драма\White.Boy.Rick.2018..1080p.[Ukr.Eng.Sub.Eng][Hurtom].
Format :
Format version : Version 4 / Version 2
File size : 8.44 GiB
Duration : 1 h 51 min
Overall bit rate : 10.9 Mb/s
Movie name : White.Boy.Rick.2018..1080p.[Ukr.Eng.Sub.Eng][Hurtom]
Encoded date : UTC 2019-01-10 11:55:24
Writing application : v24.0.0 ('Beyond The Pale') 64-bit
Writing library : libebml v1.3.6 + v1.4.9
Cover : Yes
Attachments : cover.jpg

Video
ID : 1
Format : AVC
Format/Info : Advanced Video Codec
Format profile : [email protected]
Format settings : CABAC / 5 Ref Frames
Format settings, CABAC : Yes
Format settings, ReFrames : 5 frames
Codec ID : V_MPEG4/ISO/AVC
Duration : 1 h 51 min
Bit rate : 8 727 kb/s
Width : 1 920 pixels
Height : 808 pixels
Display aspect ratio : 2.40:1
Frame rate mode : Constant
Frame rate : 23.976 FPS
Color space : YUV
Chroma subsampling : 4:2:0
Bit depth : 8 bits
Scan type : Progressive
Bits/(Pixel*Frame) : 0.235
Stream size : 6.77 GiB (80%)
Writing library : core 157 r2935 545de2f
Encoding settings : cabac=1 / ref=5 / deblock=1:0:0 / analyse=0x3:0x133 / me=umh / subme=7 / psy=1 / psy_rd=1.00:0.00 / mixed_ref=1 / me_range=16 / chroma_me=1 / trellis=1 / 8x8dct=1 / cqm=0 / deadzone=21,11 / fast_pskip=0 / chroma_qp_offset=-2 / threads=25 / lookahead_threads=4 / sliced_threads=0 / nr=0 / decimate=1 / interlaced=0 / bluray_compat=0 / constrained_intra=0 / bframes=3 / b_pyramid=2 / b_adapt=1 / b_bias=0 / direct=1 / weightb=1 / open_gop=0 / weightp=2 / keyint=250 / keyint_min=23 / scenecut=40 / intra_refresh=0 / rc_lookahead=40 / rc=2pass / mbtree=1 / bitrate=8727 / ratetol=1.0 / qcomp=0.60 / qpmin=0 / qpmax=69 / qpstep=4 / cplxblur=20.0 / qblur=0.5 / ip_ratio=1.40 / aq=1:1.00
Language : English
Default : Yes
Forced : No

Audio #1
ID : 2
Format : AC-3
Format/Info : Audio Coding 3
Codec ID : A_AC3
Duration : 1 h 51 min
Bit rate mode : Constant
Bit rate : 640 kb/s
Channel(s) : 6 channels
Channel positions : Front: L C R, Side: L R, LFE
Sampling rate : 48.0 kHz
Frame rate : 31.250 FPS (1536 SPF)
Bit depth : 16 bits
Compression mode : Lossy
Stream size : 509 MiB (6%)
Title : MVO - DniproFilm
Language : Ukrainian
Service kind : Complete Main
Default : Yes
Forced : Yes

Audio #2
ID : 3
Format :
Format/Info : Digital Theater Systems
Codec ID : A_DTS
Duration : 1 h 51 min
Bit rate mode : Constant
Bit rate : 1 509 kb/s
Channel(s) : 6 channels
Channel positions : Front: L C R, Side: L R, LFE
Sampling rate : 48.0 kHz
Frame rate : 93.750 FPS (512 SPF)
Bit depth : 24 bits
Compression mode : Lossy
Stream size : 1.17 GiB (14%)
Language : English
Default : No
Forced : No

Text
ID : 4
Format : UTF-8
Codec ID : S_TEXT/UTF8
Codec ID/Info : UTF-8 Plain Text
Duration : 1 h 44 min
Bit rate : 68 b/s
Count of elements : 1550
Stream size : 51.9 KiB (0%)
Language : English
Default : No
Forced : No

Menu
00:00:00.000 : en:00:00:00.000
00:02:44.581 : en:00:02:44.581
00:04:14.045 : en:00:04:14.045
00:05:18.151 : en:00:05:18.151
00:06:56.625 : en:00:06:56.625
00:08:22.419 : en:00:08:22.419
00:09:53.301 : en:00:09:53.301
00:11:29.439 : en:00:11:29.439
00:12:59.237 : en:00:12:59.237
00:14:28.493 : en:00:14:28.493
00:16:05.006 : en:00:16:05.006
00:17:37.598 : en:00:17:37.598
00:19:08.064 : en:00:19:08.064
00:20:40.156 : en:00:20:40.156
00:22:12.081 : en:00:22:12.081
00:24:12.660 : en:00:24:12.660
00:26:16.700 : en:00:26:16.700
00:28:10.564 : en:00:28:10.564
00:30:15.313 : en:00:30:15.313
00:32:13.014 : en:00:32:13.014
00:34:06.670 : en:00:34:06.670
00:35:45.477 : en:00:35:45.477
00:37:15.608 : en:00:37:15.608
00:38:44.447 : en:00:38:44.447
00:40:16.289 : en:00:40:16.289
00:41:47.004 : en:00:41:47.004
00:43:16.719 : en:00:43:16.719
00:44:51.522 : en:00:44:51.522
00:46:22.446 : en:00:46:22.446
00:47:53.370 : en:00:47:53.370
00:49:25.504 : en:00:49:25.504
00:50:55.678 : en:00:50:55.678
00:52:27.603 : en:00:52:27.603
00:55:29.826 : en:00:55:29.826
00:57:01.460 : en:00:57:01.460
00:58:33.260 : en:00:58:33.260
01:00:04.142 : en:01:00:04.142
01:01:36.902 : en:01:01:36.902
01:03:07.701 : en:01:03:07.701
01:06:07.505 : en:01:06:07.505
01:07:38.388 : en:01:07:38.388
01:09:36.381 : en:01:09:36.381
01:11:36.042 : en:01:11:36.042
01:13:35.828 : en:01:13:35.828
01:15:36.532 : en:01:15:36.532
01:16:45.059 : en:01:16:45.059
01:18:46.055 : en:01:18:46.055
01:20:37.833 : en:01:20:37.833
01:22:37.411 : en:01:22:37.411
01:24:38.907 : en:01:24:38.907
01:26:40.821 : en:01:26:40.821
01:28:41.816 : en:01:28:41.816
01:30:43.021 : en:01:30:43.021
01:32:44.934 : en:01:32:44.934
01:34:46.139 : en:01:34:46.139
01:36:46.259 : en:01:36:46.259
01:38:49.549 : en:01:38:49.549
01:40:50.294 : en:01:40:50.294
01:42:51.916 : en:01:42:51.916
01:44:33.309 : en:01:44:33.309






Робота зі звуком leicheman
Джерело:
Особиста оцінка: 8 - мені сподобалося
Білий хлопець Рік / White Boy Rick (2018) 1080p Ukr/Eng | Sub Eng Білий хлопець Рік / White Boy Rick (2018) 1080p Ukr/Eng | Sub Eng


Авторський реліз (завантажувати можна без реєстрації)
 Трекер:    Зареєстрований   

Завантажити / скачати фільм українською



відео для новачків



 Зареєстрований:   2019-01-10 14:56
 Розмір:   8.44 GB 
 Оцінка фільму:   7.4/10 (Голосів: 5)
   
Ваш часовий пояс: GMT + 2 Години

Нова тема   Відповісти