Макс / Max (2015) 720p Ukr/Eng | Sub Eng

Нові коментарі

Нова тема   Відповісти
Автор Повідомлення
Anonymous 







2019-01-09 12:14  
Макс / Max (2015) 720p Ukr/Eng | Sub Eng

Макс / Max (2015) 720p Ukr/Eng | Sub Eng
Альтернативні постери:







Жанр: пригодницький, драма, воєнний, сімейний
Країна: США



Кінокомпанія: Metro-Goldwyn-Mayer (MGM), Sunswept Entertainment, Warner Bros. Pictures
Режисер: Боаз Якін / Boaz Yakin
Актори: Томас Гейден Чорч / Thomas Haden Church, Джош Віггінс / Josh Wiggins, Люк Кляйнтенк / Luke Kleintank, Лорен Гелен Грем / Lauren Graham, Роббі Амелл / Robbie Amell, Міа Зітлалі / Mia Xitlali, Дежон ЛаКвейк / Dejon LaQuake, Джей Ернандес / Jay Hernandez, Овен Харн / Owen Harn, Джозеф Джуліан Сорія / Joseph Julian Soria, Едгар Арреола / Edgar Arreola та інші

Сюжет:
Макс, собака породи Малінуа (бельгійська вівчарка), який допомагав американським морпіхам в Афганістані, оговтується від стресу після бойових дій. Його забирає до себе у США Джастін, брат морпіха, і намагається допомогти. Їх життя вже не буде таким, як раніше.
Офіційний оригінальний трейлер:


Рейтинг MPAA: PG - рекомендується присутність батьків
Вікова категорія: 12+

Тривалість: 01:50:58
Якість: 720p
Відео:
кодек:
розмір кадру: 1280х534
бітрейт: 6488 кб/с

Аудіо # 1:
мова: українська
переклад: багатоголосий закадровий
кодек: 2.0
бітрейт: 192 кб/с

Аудіо # 2:
мова: англійська
переклад: оригінал
кодек: 5.1
бітрейт: 640 кб/с

Субтитри:
мова: англійська (SDH)
тип: програмні (м'які)
формат: *.srt

Збережено оригінальні розділи, як на Blu-ray
Info та log
Код:

Complete name               : Max (2015) [Ukr,Eng sub.Eng] 720p [Hurtom].
Format                      :
Format version              : Version 4
File size                   : 5.68 GiB
Duration                    : 1 h 50 min
Overall bit rate            : 7 321 kb/s
Movie name                  : Макс / Max (2015) [Ukr,Eng sub.Eng] 720p [Hurtom]
Encoded date                : UTC 2019-01-09 13:34:48
Writing application         : v30.1.0 ('Forever And More') 64-bit
Writing library             : libebml v1.3.6 + v1.4.9
Cover                       : Yes
Attachments                 : cover.jpg

Video
ID                          : 1
Format                      : AVC
Format/Info                 : Advanced Video Codec
Format profile              : [email protected]
Format settings             : CABAC / 12 Ref Frames
Format settings, CABAC      : Yes
Format settings, ReFrames   : 12 frames
Codec ID                    : V_MPEG4/ISO/AVC
Duration                    : 1 h 50 min
Bit rate                    : 6 488 kb/s
Width                       : 1 280 pixels
Height                      : 534 pixels
Display aspect ratio        : 2.40:1
Frame rate mode             : Constant
Frame rate                  : 23.976 (23976/1000) FPS
Color space                 : YUV
Chroma subsampling          : 4:2:0
Bit depth                   : 8 bits
Scan type                   : Progressive
Bits/(Pixel*Frame)          : 0.396
Stream size                 : 5.03 GiB (89%)
Title                       : Макс / Max (2015) 720p [Tonik]
Writing library             : core 148 r2597 e86f3a1
Encoding settings           : cabac=1 / ref=12 / deblock=1:-3:-3 / analyse=0x3:0x133 / me=umh / subme=11 / psy=1 / psy_rd=1.00:0.00 / mixed_ref=1 / me_range=32 / chroma_me=1 / trellis=2 / 8x8dct=1 / cqm=0 / deadzone=21,11 / fast_pskip=0 / chroma_qp_offset=-2 / threads=12 / lookahead_threads=3 / sliced_threads=0 / nr=0 / decimate=0 / interlaced=0 / bluray_compat=0 / constrained_intra=0 / bframes=10 / b_pyramid=2 / b_adapt=2 / b_bias=0 / direct=3 / weightb=1 / open_gop=0 / weightp=2 / keyint=250 / keyint_min=23 / scenecut=40 / intra_refresh=0 / rc=crf / mbtree=0 / crf=16.0 / qcomp=0.60 / qpmin=0 / qpmax=69 / qpstep=4 / ip_ratio=1.40 / pb_ratio=1.30 / aq=1:1.00
Language                    : English
Default                     : Yes
Forced                      : No

Audio #1
ID                          : 2
Format                      : AC-3
Format/Info                 : Audio Coding 3
Commercial name             : Dolby Digital
Codec ID                    : A_AC3
Duration                    : 1 h 50 min
Bit rate mode               : Constant
Bit rate                    : 192 kb/s
Channel(s)                  : 2 channels
Channel layout              : L R
Sampling rate               : 48.0 kHz
Frame rate                  : 31.250 FPS (1536 SPF)
Bit depth                   : 16 bits
Compression mode            : Lossy
Stream size                 : 152 MiB (3%)
Title                       : MVO [Inter]
Language                    : Ukrainian
Service kind                : Complete Main
Default                     : Yes
Forced                      : Yes

Audio #2
ID                          : 3
Format                      : AC-3
Format/Info                 : Audio Coding 3
Commercial name             : Dolby Digital
Codec ID                    : A_AC3
Duration                    : 1 h 50 min
Bit rate mode               : Constant
Bit rate                    : 640 kb/s
Channel(s)                  : 6 channels
Channel layout              : L R C LFE Ls Rs
Sampling rate               : 48.0 kHz
Frame rate                  : 31.250 FPS (1536 SPF)
Bit depth                   : 16 bits
Compression mode            : Lossy
Stream size                 : 508 MiB (9%)
Title                       : Original, 5.1 640 Kbps
Language                    : English
Service kind                : Complete Main
Default                     : No
Forced                      : No

Text
ID                          : 4
Format                      : UTF-8
Codec ID                    : S_TEXT/UTF8
Codec ID/Info               : UTF-8 Plain Text
Duration                    : 1 h 49 min
Bit rate                    : 54 b/s
Count of elements           : 1261
Stream size                 : 44.1 KiB (0%)
Title                       : Eng SDH
Language                    : English
Default                     : No
Forced                      : No

Menu
00:00:00.000                : en:Chapter 1
00:09:15.763                : en:Chapter 2
00:20:30.437                : en:Chapter 3
00:31:01.860                : en:Chapter 4
00:40:28.384                : en:Chapter 5
00:50:32.738                : en:Chapter 6
00:59:04.541                : en:Chapter 7
01:09:11.856                : en:Chapter 8
01:20:37.082                : en:Chapter 9
01:30:08.736                : en:Chapter 10
01:40:27.271                : en:Chapter 11
01:44:01.735                : en:Chapter 12


Код:
[info]: frame I:1210 Avg QP:15.13 size:141946
[info]: frame P:42266 Avg QP:17.15 size: 60182
[info]: frame B:116154 Avg QP:18.42 size: 23107
[info]: consecutive B-frames: 5.4% 6.7% 8.8% 26.0% 16.5% 27.6% 4.6% 2.1% 1.0% 0.6% 0.7%
Скріншоти
Джерело: &
Українська доріжка: Krigg070, Bohdan237, drop_plz; постер: mrgalser.


 Трекер:    Зареєстрований   

Завантажити / скачати фільм українською



відео для новачків



 Зареєстрований:   2019-01-09 15:47
 Розмір:   5.68 GB 
 Оцінка фільму:   9.1/10 (Голосів: 13)
 ЗАЛИШАЙТЕСЬ ЯКОМОГА ДОВШЕ НА РОЗДАЧІ! ЗАВАНТАЖИВ САМ - ДАЙ ЗАВАНТАЖИТИ ІНШИМ!
   
Інші релізи
   Макс / Max (2015) 1080p Ukr/Eng | Sub Eng staf777  3 / 0   11.77 GB   2019-01-11 10:20 
   Макс / Max (2015) AVC Ukr/Eng | Sub Eng drop_plz  7 / 0   2.03 GB   2019-01-08 22:49 
AnkaPartizanka 
Поважний учасник


З нами з: 08.01.17
Востаннє: 12.12.19
Повідомлень: 173

2019-02-15 22:53  
Трохи наївний, собаки завжди підкупають, з таким фільмом можна розслабитись, хоча є мелодраматичні моменти
mrgalser 
Новенький


З нами з: 19.12.18
Востаннє: 12.12.19
Повідомлень: 19

2019-07-20 12:29  
Anonymous 







2019-07-20 12:37  
mrgalser, дякую, додав.
Ваш часовий пояс: GMT + 2 Години

Нова тема   Відповісти