Проект «Синя книга» (Сезон 1, серії 1-3) / Project Blue Book (Season 1, episodes 1-3) (2019)

Нові коментарі

Нова тема   Відповісти
Автор Повідомлення
DniproFilm 
VIP


З нами з: 10.10.18
Востаннє: 24.01.19
Повідомлень: 279

2019-01-09 11:26  
Проект «Синя книга» (Сезон 1, серії 1-3) / Project Blue Book (Season 1, episodes 1-3) (2019)

Проект «Синя книга» (Сезон 1, серії 1-3) / Project Blue Book (Season 1, episodes 1-3) (2019)


Жанр: детектив, історія
Країна: США


Кінокомпанія / телеканал: A+E Studios, Compari Entertainment, History Channel, ImageMovers

Режисер: Роберт Стромберг
Актори/ролі озвучують: Ейден Ґіллен, Майкл Маларкі, Лаура Меннелл, Ксенія Соло, Майкл Харні, Ніл МакДонаф, Джилл Моррісон, Хезер Дорксен, Франческа Б'янчі, Джозеф Галлаччіо та інші

Сюжет:
Події розгортаються в 1950-і роки. Проект «Синя книга» - один із серії проектів систематичних досліджень вхідних повідомлень невпізнаних літаючих об'єктів (НЛО), що проводилися ВВС США в середині XX століття. Проектом були зібрані, проаналізовані та вивчені тисячі повідомлень про передбачувані спостереження НЛО.
За сюжетом, астроном Дж. Аллен Хінек і капітан ВПС США Майкл Квінн розбираються зі свідченнями появи НЛО. В ході розслідування вони натикаються на урядову змову, що приховує від населення правду…


Тривалість: 1 серія: ~ 45 хв. (цілком серій: 10)
Перелік серій

1. The Fuller Dogfight
2. The Flatwoods Monster
3. The Lubbock Lights
4. Operation Paperclip
5. Foo Fighters
6. The Green Fireballs
7. Episode 1.7
8. Episode 1.8
9. Episode 1.9
10. Episode 1.10
Якість:
Відео:
кодек:
розмір кадру: 720x360
бітрейт: ~1800 кб/с

Аудіо # 1:
мова: українська
переклад: багатоголосий закадровий
кодек: 2.0
бітрейт: 192 кб/с

Джерело озвучення:
DniproFilm
Info

Video
ID : 0
Format : MPEG-4 Visual
Format profile : Advanced [email protected]
Format settings : BVOP2
Format settings, BVOP : 2
Format settings, QPel : No
Format settings, GMC : No warppoints
Format settings, Matrix : Default (H.263)
Muxing mode : Packed bitstream
Codec ID :
Codec ID/Hint :
Duration : 44 min 45 s
Bit rate : 1 692 kb/s
Width : 720 pixels
Height : 360 pixels
Display aspect ratio : 2.000
Frame rate : 23.976 (24000/1001) FPS
Color space : YUV
Chroma subsampling : 4:2:0
Bit depth : 8 bits
Scan type : Progressive
Compression mode : Lossy
Bits/(Pixel*Frame) : 0.272
Stream size : 542 MiB (89%)
Writing library : 67

Audio
ID : 1
Format : AC-3
Format/Info : Audio Coding 3
Commercial name : Dolby Digital
Codec ID : 2000
Duration : 44 min 45 s
Bit rate mode : Constant
Bit rate : 192 kb/s
Channel(s) : 2 channels
Channel positions : Front: L R
Sampling rate : 48.0 kHz
Frame rate : 31.250 FPS (1536 SPF)
Bit depth : 16 bits
Compression mode : Lossy
Stream size : 61.5 MiB (10%)
Alignment : Aligned on interleaves
Interleave, duration : 42 ms (1.00 video frame)
Interleave, preload duratio : 512 ms
Service kind : Complete Main
Скріншоти


Увага, присутня відео та аудіореклама.


Джерело: DniproFilm


Авторський реліз (завантажувати можна без реєстрації)
 Трекер:    Зареєстрований   

Завантажити / скачати серіал українською



відео для новачків



 Зареєстрований:   2019-01-23 13:46
 Розмір:   1.73 GB 
 Оцінка серіалу:   9.7/10 (Голосів: 18)
   
[email protected] 
Новенький


З нами з: 09.01.19
Востаннє: 22.01.19
Повідомлень: 1

2019-01-09 14:04  
Це неймовірно!
wolesj 
VIP


З нами з: 15.07.12
Востаннє: 22.01.19
Повідомлень: 557

2019-01-09 14:16  
DniproFilm написано:

Сюжет:
Події розгортаються в 1950-і роки. Проект «Синя книга» - один із серії проектів систематичних досліджень вхідних повідомлень невпізнаних літаючих об'єктів (НЛО), що проводилися ВВС США в середині XX століття. Проектом були зібрані, проаналізовані та вивчені тисячі повідомлень про передбачувані спостереження НЛО.
За сюжетом, астроном Дж. Аллен Хінек і капітан ВПС США Майкл Квінн розбираються зі свідченнями появи НЛО. В ході розслідування вони натикаються на урядову змову, що приховує від населення правду…


Звідки ви взяли сюжет?
На imdb:
UFO-related phenomena from 1947-70.

Що означає вхідних повідомлень і про передбачувані спостереження НЛО

вони натикаються на урядову змову - ну, тут все зрозуміло Happy

timpro 
Частий відвідувач


З нами з: 28.01.14
Востаннє: 24.01.19
Повідомлень: 43

2019-01-09 15:34  
Дякую, як раз подумав, а тут вже переклали. Супер. Не партеся, щодо реклами - головне, що українською!
ced 
Свій


З нами з: 11.02.17
Востаннє: 24.01.19
Повідомлень: 85

2019-01-10 01:40  
wolesj написано:
Звідки ви взяли сюжет?

З історії проекту мабуть, Синю Книгу започатковано 1952 р. https://en.wikipedia.org/wiki/Project_Blue_Book

Winged 
Свій


З нами з: 11.10.09
Востаннє: 22.01.19
Повідомлень: 50

2019-01-11 11:36  
Добре!
Глянемо, але почекаю як викладуть ще кілька серій.

бронн 
Новенький


З нами з: 21.10.16
Востаннє: 23.01.19
Повідомлень: 17

2019-01-13 10:30  
Цікаво!
Має бути багатообіцяюче. Подивимось

DniproFilm 
VIP


З нами з: 10.10.18
Востаннє: 24.01.19
Повідомлень: 279

2019-01-16 12:08  
УВАГА! РЕЛІЗ ОНОВЛЕНО! (16.01.2019). Додано 2 серію.

SrGr 
Свій


З нами з: 15.01.12
Востаннє: 22.01.19
Повідомлень: 64

2019-01-16 22:07  
Цитата:
Сюжет:
... що проводилися ВВС США...
... капітан ВПС США...

Так собі переклад (

tpolit 
VIP


З нами з: 10.01.15
Востаннє: 24.01.19
Повідомлень: 386

2019-01-21 08:24  
Таке собі кіно, нічого надзвичайного.
DniproFilm 
VIP


З нами з: 10.10.18
Востаннє: 24.01.19
Повідомлень: 279

2019-01-23 13:47  
УВАГА! РЕЛІЗ ОНОВЛЕНО! (23.01.2019). Додано 3 серію.

Ваш часовий пояс: GMT + 2 Години

Нова тема   Відповісти