Проект «Синя книга» (Сезон 1) / Project Blue Book (Season 1) (2019) 720p Ukr/Eng

Нові коментарі

Нова тема   Відповісти
Автор Повідомлення
DniproFilm 
VIP


З нами з: 10.10.18
Востаннє: 21.07.19
Повідомлень: 251

2019-01-09 12:26  
Проект «Синя книга» (Сезон 1) / Project Blue Book (Season 1) (2019) 720p Ukr/Eng

Проект «Синя книга» (Сезон 1) / Project Blue Book (Season 1) (2019) 720p Ukr/Eng


Жанр: детектив, історичний, містика, фантастика, драма
Країна: США



Кінокомпанія / телеканал: A+E Studios, Compari Entertainment, History Channel, ImageMovers

Режисер: Роберт Стромберг
Актори/ролі озвучують: Ейден Ґіллен, Майкл Маларкі, Лаура Меннелл, Ксенія Соло, Майкл Харні, Ніл МакДонаф, Джилл Моррісон, Хезер Дорксен, Франческа Б'янчі, Джозеф Галлаччіо та інші

Сюжет:
Події розгортаються в 1950-і роки. Проект «Синя книга» - один із серії проектів систематичних досліджень вхідних повідомлень невпізнаних літаючих об'єктів (НЛО), що проводилися ВВС США в середині XX століття. Проектом були зібрані, проаналізовані та вивчені тисячі повідомлень про передбачувані спостереження НЛО.
За сюжетом, астроном Дж. Аллен Хінек і капітан ВПС США Майкл Квінн розбираються зі свідченнями появи НЛО. В ході розслідування вони натикаються на урядову змову, що приховує від населення правду…


Тривалість: 1 серія: ~ 45 хв. (цілком серій: 10)
Перелік серій

1. The Fuller Dogfight
2. The Flatwoods Monster
3. The Lubbock Lights
4. Operation Paperclip
5. Foo Fighters
6. The Green Fireballs
7. The Scoutmaster
8. War Games
9. Abduction
10. The Washington Merry-Go Round
Якість:
Відео:
кодек:
розмір кадру: 1280x640
бітрейт: ~4000 кб/с

Аудіо # 1:
мова: українська
переклад: багатоголосий закадровий
кодек: 2.0
бітрейт: 192 кб/с

Аудіо # 2:
мова: англійська
переклад: оригінал
кодек: 2.0
бітрейт: 384 кб/с

Джерело озвучення:
DniproFilm
Info

Video
ID : 1
Format : AVC
Format/Info : Advanced Video Codec
Format profile : [email protected]
Format settings : CABAC / 4 Ref Frames
Format settings, CABAC : Yes
Format settings, ReFrames : 4 frames
Codec ID : V_MPEG4/ISO/AVC
Duration : 44 min 45 s
Bit rate : 3 928 kb/s
Width : 1 280 pixels
Height : 640 pixels
Display aspect ratio : 2.000
Frame rate mode : Constant
Frame rate : 23.976 (24000/1001) FPS
Standard : NTSC
Color space : YUV
Chroma subsampling : 4:2:0
Bit depth : 8 bits
Scan type : Progressive
Bits/(Pixel*Frame) : 0.200
Stream size : 1.23 GiB (87%)
Language : English
Default : Yes
Forced : No
Color range : Limited
Color primaries : BT.709
Transfer characteristics : BT.709
Matrix coefficients : BT.709

Audio #1
ID : 2
Format : AC-3
Format/Info : Audio Coding 3
Commercial name : Dolby Digital
Codec ID : A_AC3
Duration : 44 min 45 s
Bit rate mode : Constant
Bit rate : 192 kb/s
Channel(s) : 2 channels
Channel positions : Front: L R
Sampling rate : 48.0 kHz
Frame rate : 31.250 FPS (1536 SPF)
Bit depth : 16 bits
Compression mode : Lossy
Stream size : 61.5 MiB (4%)
Title : DniproFilm
Language : Ukrainian
Service kind : Complete Main
Default : Yes
Forced : No

Audio #2
ID : 3
Format : AC-3
Format/Info : Audio Coding 3
Codec ID : A_AC3
Duration : 44 min 14 s
Bit rate : 384 kb/s
Channel(s) : 2 channels
Sampling rate : 48.0 kHz
Frame rate : 31.250 FPS (1536 SPF)
Compression mode : Lossy
Stream size : 122 MiB (8%)
Language : English
Default : No
Forced : No
Скріншоти


Увага, присутня відео та аудіореклама.


Джерело: DniproFilm



Авторський реліз (завантажувати можна без реєстрації)
 Трекер:    Зареєстрований   

Завантажити / скачати серіал українською



відео для новачків



 Зареєстрований:   2019-03-13 15:36
 Розмір:   13.84 GB 
 Оцінка серіалу:   8.2/10 (Голосів: 12)
   
Estranded 
VIP


З нами з: 09.02.14
Востаннє: 21.07.19
Повідомлень: 1379

2019-01-27 01:47  
Перші серії цікаві - рекомендую до перегляду. Друга серія непередбачувана, оригінально так розкрили справу.
=Каратель= 
Новенький


З нами з: 27.01.19
Востаннє: 14.04.19
Повідомлень: 2

2019-02-10 11:11  
Щось останім часом DniproFilm не спішить з перекладом Sad (2)
NeetScrool 
Відео Гуртом - фільмокрай
Відео Гуртом - фільмокрай


З нами з: 10.01.13
Востаннє: 16.07.19
Повідомлень: 2981

2019-02-10 20:50  
Угу. І Стартрек зупинився.
Kumcheg1995 
Частий відвідувач


З нами з: 05.01.17
Востаннє: 20.07.19
Повідомлень: 27

2019-03-10 21:02  
Підскажіть, коли 9-та серія буде ?
DniproFilm 
VIP


З нами з: 10.10.18
Востаннє: 21.07.19
Повідомлень: 251

2019-03-13 15:37  
РЕЛІЗ ОНОВЛЕНО! (13.03.2019). Додано 9-10 серії (фінал сезону).

Ваш часовий пояс: GMT + 2 Години

Нова тема   Відповісти