Проект «Синя книга» (Сезон 1, серії 1-3) / Project Blue Book (Season 1, episodes 1-3) (2019) 1080p Ukr/Eng

Нові коментарі

Нова тема   Відповісти
Автор Повідомлення
DniproFilm 
VIP


З нами з: 10.10.18
Востаннє: 24.01.19
Повідомлень: 279

2019-01-09 11:26  
Проект «Синя книга» (Сезон 1, серії 1-3) / Project Blue Book (Season 1, episodes 1-3) (2019) 1080p Ukr/Eng

Проект «Синя книга» (Сезон 1, серії 1-3) / Project Blue Book (Season 1, episodes 1-3) (2019) 1080p Ukr/Eng


Жанр: детектив, історія
Країна: США


Кінокомпанія / телеканал: A+E Studios, Compari Entertainment, History Channel, ImageMovers

Режисер: Роберт Стромберг
Актори/ролі озвучують: Ейден Ґіллен, Майкл Маларкі, Лаура Меннелл, Ксенія Соло, Майкл Харні, Ніл МакДонаф, Джилл Моррісон, Хезер Дорксен, Франческа Б'янчі, Джозеф Галлаччіо та інші

Сюжет:
Події розгортаються в 1950-і роки. Проект «Синя книга» - один із серії проектів систематичних досліджень вхідних повідомлень невпізнаних літаючих об'єктів (НЛО), що проводилися ВВС США в середині XX століття. Проектом були зібрані, проаналізовані та вивчені тисячі повідомлень про передбачувані спостереження НЛО.
За сюжетом, астроном Дж. Аллен Хінек і капітан ВПС США Майкл Квінн розбираються зі свідченнями появи НЛО. В ході розслідування вони натикаються на урядову змову, що приховує від населення правду…


Тривалість: 1 серія: ~ 45 хв. (цілком серій: 10)
Перелік серій

1. The Fuller Dogfight
2. The Flatwoods Monster
3. The Lubbock Lights
4. Operation Paperclip
5. Foo Fighters
6. The Green Fireballs
7. Episode 1.7
8. Episode 1.8
9. Episode 1.9
10. Episode 1.10
Якість:
Відео:
кодек:
розмір кадру: 1920x960
бітрейт: ~7000 кб/с

Аудіо # 1:
мова: українська
переклад: багатоголосий закадровий
кодек: 2.0
бітрейт: 192 кб/с

Аудіо # 2:
мова: англійська
переклад: оригінал
кодек: 2.0
бітрейт: 384 кб/с

Джерело озвучення:
DniproFilm
Info

Video
ID : 1
Format : AVC
Format/Info : Advanced Video Codec
Format profile : [email protected]
Format settings : CABAC / 4 Ref Frames
Format settings, CABAC : Yes
Format settings, ReFrames : 4 frames
Codec ID : V_MPEG4/ISO/AVC
Duration : 44 min 45 s
Bit rate : 6 874 kb/s
Width : 1 920 pixels
Height : 960 pixels
Display aspect ratio : 2.000
Frame rate mode : Constant
Frame rate : 23.976 (24000/1001) FPS
Standard : NTSC
Color space : YUV
Chroma subsampling : 4:2:0
Bit depth : 8 bits
Scan type : Progressive
Bits/(Pixel*Frame) : 0.156
Stream size : 2.15 GiB (92%)
Language : English
Default : Yes
Forced : No
Color range : Limited
Color primaries : BT.709
Transfer characteristics : BT.709
Matrix coefficients : BT.709

Audio #1
ID : 2
Format : AC-3
Format/Info : Audio Coding 3
Commercial name : Dolby Digital
Codec ID : A_AC3
Duration : 44 min 45 s
Bit rate mode : Constant
Bit rate : 192 kb/s
Channel(s) : 2 channels
Channel positions : Front: L R
Sampling rate : 48.0 kHz
Frame rate : 31.250 FPS (1536 SPF)
Bit depth : 16 bits
Compression mode : Lossy
Stream size : 61.5 MiB (3%)
Title : DniproFilm
Language : Ukrainian
Service kind : Complete Main
Default : Yes
Forced : No

Audio #2
ID : 3
Format : AC-3
Format/Info : Audio Coding 3
Codec ID : A_AC3
Duration : 44 min 14 s
Bit rate : 384 kb/s
Channel(s) : 2 channels
Sampling rate : 48.0 kHz
Frame rate : 31.250 FPS (1536 SPF)
Compression mode : Lossy
Stream size : 122 MiB (5%)
Language : English
Default : No
Forced : No
Скріншоти


Увага, присутня відео та аудіореклама.


Джерело: DniproFilm


Авторський реліз (завантажувати можна без реєстрації)
 Трекер:    Зареєстрований   

Завантажити / скачати серіал українською



відео для новачків



 Зареєстрований:   2019-01-23 13:46
 Розмір:   6.87 GB 
 Оцінка серіалу:   9.9/10 (Голосів: 8)
   
569® Loose 
Новенький


З нами з: 21.11.18
Востаннє: 22.01.19
Повідомлень: 2

2019-01-09 23:18  
коли продовження?
GoDLiKeR20 
Свій


З нами з: 21.06.13
Востаннє: 23.01.19
Повідомлень: 64

2019-01-12 19:20  
569® Loose
Є такий сайт imdb... 2 серія за бугром вийде 15 січня + добавте час на переклад, а це вже від студії DniproFilm залежить, не думаю що довго.

DniproFilm 
VIP


З нами з: 10.10.18
Востаннє: 24.01.19
Повідомлень: 279

2019-01-16 12:07  
УВАГА! РЕЛІЗ ОНОВЛЕНО! (16.01.2019). Додано 2 серію.

Cartwright 
Поважний учасник


З нами з: 23.03.13
Востаннє: 24.01.19
Повідомлень: 159

2019-01-16 15:23  
Класний серіал. Прямо неначе приквел Цілком таємно. Достойно.
DniproFilm 
VIP


З нами з: 10.10.18
Востаннє: 24.01.19
Повідомлень: 279

2019-01-23 13:47  
УВАГА! РЕЛІЗ ОНОВЛЕНО! (23.01.2019). Додано 3 серію.

Ваш часовий пояс: GMT + 2 Години

Нова тема   Відповісти