Пітер Пен: У пошуках магічної книги / Peter Pan: The Quest for the Never Book (2018)

Нові коментарі

Нова тема   Відповісти
Автор Повідомлення
Anonymous 







2019-01-08 22:17  
Пітер Пен: У пошуках магічної книги / Peter Pan: The Quest for the Never Book (2018)



Жанр: мультфільм, дитячий, сімейний, пригодницький
Країна: Індія



Кінокомпанія: DQ Entertainment
Режисер: Раджив Чандрасекаран
Актори: Майкл Добсон, Метт Хілл, Мішель Кребер

Сюжет:
Небувалія знаходиться у великій небезпеці, коли знаменита Магічна Книга потрапляє до рук хитрого Капітана Гака, який зловживає своєю магічною силою, щоб дати волю злим монстрам, щоб знищити Пітера Пена та його друзів. Чи зможе Пітер виконати легендарне пророцтво магічної книги за допомогою своїх друзів? Чи зможе він врятувати Небувалію та Лондон?


Тривалість: 01:29:26
Якість: [Hurtom]

Відео:
кодек:
розмір кадру: 704х400
бітрейт: 2150 кб/с

Аудіо # 1:
мова: українська
переклад: професійний дубльований | студія Tretyakoff production
кодек: 2.0 [стерео]
бітрейт: 192 кб/с
Info
Код:
General
Complete name               : Peter Pan. The Quest for the Never Book (2018) [Ukr] [Hurtom].avi
Format                      : AVI
Format/Info                 : Audio Video Interleave
File size                   : 1.45 GiB
Duration                    : 1 h 28 min
Overall bit rate            : 2 351 kb/s
Movie name                  : Пітер Пен: У пошуках магічної книги / Peter Pan: The Quest for the Never Book (2018) [Ukr] [Hurtom]
Writing application         : VirtualDubModUkr 1.5.10.2 (build 2542/release)
Writing library             : VirtualDubMod build 2542/release

Video
ID                          : 0
Format                      : MPEG-4 Visual
Format profile              : Advanced [email protected]
Format settings             : BVOP1
Format settings, BVOP       : 1
Format settings, QPel       : No
Format settings, GMC        : No warppoints
Format settings, Matrix     : Default (MPEG)
Codec ID                    :
Codec ID/Hint               :
Duration                    : 1 h 28 min
Bit rate                    : 2 150 kb/s
Width                       : 704 pixels
Height                      : 400 pixels
Display aspect ratio        : 16:9
Frame rate                  : 24.000 FPS
Color space                 : YUV
Chroma subsampling          : 4:2:0
Bit depth                   : 8 bits
Scan type                   : Progressive
Compression mode            : Lossy
Bits/(Pixel*Frame)          : 0.318
Stream size                 : 1.33 GiB (91%)
Writing library             : 67

Audio
ID                          : 1
Format                      : AC-3
Format/Info                 : Audio Coding 3
Commercial name             : Dolby Digital
Codec ID                    : 2000
Duration                    : 1 h 28 min
Bit rate mode               : Constant
Bit rate                    : 192 kb/s
Channel(s)                  : 2 channels
Channel layout              : L R
Sampling rate               : 48.0 kHz
Frame rate                  : 31.250 FPS (1536 SPF)
Bit depth                   : 16 bits
Compression mode            : Lossy
Stream size                 : 121 MiB (8%)
Alignment                   : Split accross interleaves
Interleave, duration        : 42  ms (1.00 video frame)
Interleave, preload duratio : 500  ms
Title                       : UKR DUB MEGOGO
Service kind                : Complete Main




Джерело:


 Трекер:    Зареєстрований   

Завантажити / скачати мультфільм українською



відео для новачків



 Зареєстрований:   2019-01-14 01:10
 Розмір:   1.45 GB 
 Оцінка мультфільму:   9.4/10 (Голосів: 33)
   
dimon-2018 
VIP


З нами з: 06.05.18
Востаннє: 22.07.19
Повідомлень: 271

2019-03-01 09:44  
Anonymous, студія дубляжу - Tretyakoff production.
Ваш часовий пояс: GMT + 2 Години

Нова тема   Відповісти