Тридцять дев'ять сходинок / The 39 Steps (1935) Remux 1080p Ukr/Eng | Sub Eng

Нові коментарі

Нова тема   Відповісти
Автор Повідомлення
MakRA 
VIP


З нами з: 11.11.18
Востаннє: 19.09.20
Повідомлень: 1115

2019-01-08 18:40  
Тридцять дев'ять сходинок / The 39 Steps (1935) Remux 1080p Ukr/Eng | Sub Eng

Тридцять дев'ять сходинок / The 39 Steps (1935) Remux 1080p Ukr/Eng | Sub Eng


Жанр: детектив, трилер
Країна: Велика Британія



Кінокомпанія: Gaumont British Picture Corporation
Режисер: Альфред Гічкок [Alfred Hitchcock]
Актори: Роберт Донат [Robert Donat], Мадлен Керролл [Madeleine Carroll], Люсі Маннгайм [Lucie Mannheim], Годфрі Тірлім [Годфрі Тірлім], Пеггі Ашкрофт [Пеггі Ашкрофт], Джон Лорі [John Laurie], Вайлі Вотсон [Wylie Watson], Гелен Гейі [Helen Haye], Пеггі Сімпсон [Peggy Simpson], Френк Селльєр [Frank Cellier].

Сюжет:
Головний герой фільму - канадець Річард Ганней приїжджає до Англії, там його звинувачують у вбивстві дівчини Аннабелли. З нею він познайомився незадовго до цього, і вона була вбита в його номері. Дівчина виявляється секретним агентом. Від неї Ганней дізнається про таємницю "39 сходинок" і подорожує по Британії, прагнучи розгадати її і запобігти витоку важливих відомостей за кордон.

Цікаві факти:
Зйомки проводились в павільйоні студії Lime Grove і на натурі в Шотландії.
Камео Альфреда Гічкока — людина, яка йде по вулиці і викидає сміття.
Фільму мав три ремейка — в 1959, 1978 (режисер Дон Шарп) і 2008 (ТБ) роках.
Роберт Донат і Мадлен Керролл до зйомок не були знайомі. Перша сцена, де вони знімалися — це коли їхні герої прикуті один до одного наручниками тікають. Гічкок пристебнув їх справжніми наручниками і сказав акторам після зйомок, що втратив ключ. Роберт Донат і Мадлен Керролл були прикуті один до одного цілий день і провели його разом.


Тривалість: 01:26:46
Якість: Remux 1080p
Відео:
кодек:
розмір кадру: 1920 х 1080
бітрейт: 34.9 Mb/s

Аудіо # 1:
мова: українська
переклад: багатоголосий закадровий["1+1"]
кодек: 2.0
бітрейт: 192 kb/s

Аудіо # 2:
мова: англійська
переклад: оригінал
кодек: 1.0
бітрейт: 751 kb/s

Аудіо # 3:
мова: англійська
переклад: оригінал
кодек: 1.0
бітрейт: 192 kb/s

Субтитри:
мова: англійська
тип: пререндерні
формат: *.pgs
Info
General
Unique ID : 292013498610559090889485802341495056421 (0xDBAFC10D9C62F6F21BEC638E4961A825)
Complete name : E:\! Моя роздача\The 39 Steps (1935) Remux 1080p UkrEng Sub Eng [Hurtom].
Format :
Format version : Version 4 / Version 2
File size : 21.8 GiB
Duration : 1 h 26 min
Overall bit rate mode : Variable
Overall bit rate : 36.0 Mb/s
Encoded date : UTC 2019-01-08 10:50:38
Writing application : v25.0.0 ('Prog Noir') 64-bit
Writing library : libebml v1.3.6 + v1.4.9

Video
ID : 1
Format : AVC
Format/Info : Advanced Video Codec
Format profile : [email protected]
Format settings, CABAC : Yes
Format settings, RefFrames : 4 frames
Codec ID : V_MPEG4/ISO/AVC
Duration : 1 h 26 min
Bit rate mode : Variable
Bit rate : 34.9 Mb/s
Maximum bit rate : 37.0 Mb/s
Width : 1 920 pixels
Height : 1 080 pixels
Display aspect ratio : 16:9
Frame rate mode : Constant
Frame rate : 23.976 (24000/1001) FPS
Color space : YUV
Chroma subsampling : 4:2:0
Bit depth : 8 bits
Scan type : Progressive
Bits/(Pixel*Frame) : 0.701
Stream size : 21.1 GiB (97%)
Title : The 39 Steps (1935) Remux 1080p UkrEng Sub Eng [Hurtom]
Language : Ukrainian
Default : Yes
Forced : Yes

Audio #1
ID : 2
Format : AC-3
Format/Info : Audio Coding 3
Format settings, Endianness : Big
Codec ID : A_AC3
Duration : 1 h 26 min
Bit rate mode : Constant
Bit rate : 192 kb/s
Channel(s) : 2 channels
Channel positions : Front: L R
Sampling rate : 48.0 kHz
Frame rate : 31.250 FPS (1536 SPF)
Bit depth : 16 bits
Compression mode : Lossy
Stream size : 119 MiB (1%)
Title : MVO ["1+1"]
Language : Ukrainian
Service kind : Complete Main
Default : Yes
Forced : Yes

Audio #2
ID : 3
Format :
Format/Info : Digital Theater Systems
Format profile : MA / Core
Mode : 16
Format settings, Endianness : Big
Codec ID : A_DTS
Duration : 1 h 26 min
Bit rate mode : Variable / Constant
Bit rate : 751 kb/s / 384 kb/s
Channel(s) : 1 channel
Channel positions : Front: C
Sampling rate : 48.0 kHz
Frame rate : 93.750 FPS (512 SPF)
Bit depth : 24 bits
Compression mode : Lossless / Lossy
Stream size : 466 MiB (2%)
Title : Original
Language : English
Default : No
Forced : No

Audio #3
ID : 4
Format : AC-3
Format/Info : Audio Coding 3
Format settings, Endianness : Big
Codec ID : A_AC3
Duration : 1 h 26 min
Bit rate mode : Constant
Bit rate : 192 kb/s
Channel(s) : 1 channel
Channel positions : Front: C
Sampling rate : 48.0 kHz
Frame rate : 31.250 FPS (1536 SPF)
Bit depth : 16 bits
Compression mode : Lossy
Stream size : 119 MiB (1%)
Title : Original
Language : English
Service kind : Complete Main
Default : No
Forced : No

Text
ID : 5
Format : PGS
Muxing mode : zlib
Codec ID : S_HDMV/PGS
Codec ID/Info : Picture based subtitle format used on BDs/HD-DVDs
Duration : 1 h 24 min
Bit rate : 27.8 kb/s
Count of elements : 1874
Stream size : 16.7 MiB (0%)
Title : Eng
Language : English
Default : No
Forced : No
Скріншоти
Джерело: &
Особиста оцінка: 10 - без зайвих вагань рекомендую всім!


Золотий реліз (завантажене не впливає на рейтинг)
 Трекер:    Зареєстрований   

Завантажити / скачати фільм українською



відео для новачків



 Зареєстрований:   2019-01-08 18:40
 Розмір:   21.82 GB 
 Оцінка фільму:   9.8/10 (Голосів: 6)
   
kryk-v.ya. 
Попереджень: 1
Попереджень: 1 


З нами з: 14.02.14
Востаннє: 19.09.20
Повідомлень: 2237

2019-01-08 19:53  
оце раритет...вельми дякую.
MakRA 
VIP


З нами з: 11.11.18
Востаннє: 19.09.20
Повідомлень: 1115

2019-01-08 20:16  
kryk-v.ya.
Будь ласка) Золота класика...

Ваш часовий пояс: GMT + 2 Години

Нова тема   Відповісти