Казка на ніч / He's Out There (2018) 1080p Ukr/Eng

Нові коментарі

Нова тема   Відповісти
Автор Повідомлення
staf777 
Відео Гуртом - підтримка та поширення
Відео Гуртом - підтримка та поширення


З нами з: 16.11.16
Востаннє: 26.05.19
Повідомлень: 2382

2019-01-08 15:13  
Казка на ніч / He's Out There (2018) 1080p Ukr/Eng



Жанр: жахи, трилер
Країна: США



Кінокомпанія: Screen Gems, Unbroken Pictures
Режисер: Куінн Лешер
Актори: Івонн Страховскі, Анна Пніовскі, Ебігейл Пніовскі, Райан МакДональд, Джастін Бруенінг, Джуліан Бейлі, Стефані Коста

Сюжет:
Жінка з двома дочками приїжджає у віддалений будинок біля озера. Там вони планують відпочити, а ближче до ночі повинен прибути глава сімейства. Коли ввечері молодшу дочку починає нудити, то з'ясовується, що дівчатка знайшли у лісі накритий для них стіл та тістечка, а зараз сім'я може опинитися у лапах схибленого маніяка.


Тривалість: 01:29:30
Якість: 1080p
Відео:
кодек:
розмір кадру: 1920x800
бітрейт: 8981 кб/с

Аудіо # 1:
мова: українська
переклад: багатоголосий закадровий
кодек: 2.0
бітрейт: 192 кб/с

Аудіо # 2:
мова: англійська
переклад: оригінал
кодек: 5.1
бітрейт: 1509 кб/с
Info

General
Unique ID : 110964155971136901971433358284486926621 (0x537AEB486C72B9E05541AA8300BCE11D)
Complete name : P:\МР\He's Out There (2018) 1080p [UKR][ENG][Hurtom].
Format :
Format version : Version 4 / Version 2
File size : 6.67 GiB
Duration : 1 h 29 min
Overall bit rate : 10.7 Mb/s
Movie name : He's Out There (2018) 1080p [UKR][ENG][Hurtom]
Encoded date : UTC 2019-01-08 12:56:14
Writing application : v24.0.0 ('Beyond The Pale') 64-bit
Writing library : libebml v1.3.6 + v1.4.9
Cover : Yes
Attachments : cover.jpg

Video
ID : 1
Format : AVC
Format/Info : Advanced Video Codec
Format profile : [email protected]
Format settings : CABAC / 5 Ref Frames
Format settings, CABAC : Yes
Format settings, ReFrames : 5 frames
Codec ID : V_MPEG4/ISO/AVC
Duration : 1 h 29 min
Bit rate : 8 981 kb/s
Width : 1 920 pixels
Height : 800 pixels
Display aspect ratio : 2.40:1
Frame rate mode : Constant
Frame rate : 23.976 (24000/1001) FPS
Color space : YUV
Chroma subsampling : 4:2:0
Bit depth : 8 bits
Scan type : Progressive
Bits/(Pixel*Frame) : 0.244
Stream size : 5.61 GiB (84%)
Writing library : core 157 r2935 545de2f
Encoding settings : cabac=1 / ref=5 / deblock=1:0:0 / analyse=0x3:0x113 / me=umh / subme=8 / psy=1 / psy_rd=1.00:0.00 / mixed_ref=1 / me_range=16 / chroma_me=1 / trellis=2 / 8x8dct=1 / cqm=0 / deadzone=21,11 / fast_pskip=0 / chroma_qp_offset=-2 / threads=25 / lookahead_threads=4 / sliced_threads=0 / nr=0 / decimate=1 / interlaced=0 / bluray_compat=0 / constrained_intra=0 / bframes=3 / b_pyramid=2 / b_adapt=1 / b_bias=0 / direct=3 / weightb=1 / open_gop=0 / weightp=2 / keyint=250 / keyint_min=23 / scenecut=40 / intra_refresh=0 / rc_lookahead=50 / rc=2pass / mbtree=1 / bitrate=8981 / ratetol=1.0 / qcomp=0.60 / qpmin=0 / qpmax=69 / qpstep=4 / cplxblur=20.0 / qblur=0.5 / ip_ratio=1.40 / aq=1:1.00
Language : English
Default : Yes
Forced : No

Audio #1
ID : 2
Format : AC-3
Format/Info : Audio Coding 3
Codec ID : A_AC3
Duration : 1 h 29 min
Bit rate mode : Constant
Bit rate : 192 kb/s
Channel(s) : 2 channels
Channel positions : Front: L R
Sampling rate : 48.0 kHz
Frame rate : 31.250 FPS (1536 SPF)
Bit depth : 16 bits
Compression mode : Lossy
Stream size : 123 MiB (2%)
Title : [UKR-MVO]
Language : Ukrainian
Service kind : Complete Main
Default : Yes
Forced : Yes

Audio #2
ID : 3
Format :
Format/Info : Digital Theater Systems
Codec ID : A_DTS
Duration : 1 h 29 min
Bit rate mode : Constant
Bit rate : 1 509 kb/s
Channel(s) : 6 channels
Channel positions : Front: L C R, Side: L R, LFE
Sampling rate : 48.0 kHz
Frame rate : 93.750 FPS (512 SPF)
Bit depth : 24 bits
Compression mode : Lossy
Stream size : 966 MiB (14%)
Title : English
Language : English
Default : No
Forced : No

Menu
00:00:00.000 : en:00:00:00.000
00:05:49.224 : en:00:05:49.224
00:12:54.065 : en:00:12:54.065
00:20:55.504 : en:00:20:55.504
00:28:06.059 : en:00:28:06.059
00:36:00.408 : en:00:36:00.408
00:42:27.879 : en:00:42:27.879
00:52:17.217 : en:00:52:17.217
00:59:10.839 : en:00:59:10.839
01:05:24.587 : en:01:05:24.587
01:11:00.423 : en:01:11:00.423
01:19:15.250 : en:01:19:15.250



Джерело:
Особиста оцінка: 8 - мені сподобалося
Казка на ніч / He's Out There (2018) 1080p Ukr/Eng Казка на ніч / He's Out There (2018) 1080p Ukr/Eng


 Трекер:    Зареєстрований   

Завантажити / скачати фільм українською



відео для новачків



 Зареєстрований:   2019-01-08 16:24
 Розмір:   6.67 GB 
 Оцінка фільму:   8.1/10 (Голосів: 19)
   
Інші релізи
   Казка на ніч / He's Out There (2018) 720p Ukr/Eng | Sub Eng 11FrYkT  4 / 0   3.89 GB   2019-01-27 22:30 
   Казка на ніч / He's Out There (2018) 11FrYkT  14 / 0   1.46 GB   2019-01-08 11:20 
bot 
робот


З нами з: 30.09.07
Востаннє: 26.05.05
Повідомлень: 21389

2019-01-08 16:24  
Тему перенесено з Анонси релізів до форуму Фільми в HD


staf777

sirkon10 
Частий відвідувач


З нами з: 13.05.12
Востаннє: 24.05.19
Повідомлень: 33

2019-01-08 22:41  
Хто дивився Декстера, тут знайде для себе дещо цікаве Happy
Cerguk 
Свій


З нами з: 30.09.09
Востаннє: 26.05.19
Повідомлень: 70

2019-01-12 09:30  
Я дивився пару сезонів Декстера, але щось дуже важко уявити що ж в цих стрічках може бути спільного Happy
Ну а взагалі як фільм, варто ризикнути чи повний шлак ? Бо заїзджена до дірок тема і рейтинг натякають що може бути категорія 3

starpallace 
Новенький


З нами з: 22.10.11
Востаннє: 20.05.19
Повідомлень: 6

2019-01-13 00:10  
Спільний не сюжет, а актриса (Ханна Маккей-Івон Страховскі)
Cerguk 
Свій


З нами з: 30.09.09
Востаннє: 26.05.19
Повідомлень: 70

2019-01-13 10:00  
Актрису цю чесно кажучи не згадав, я взагалі з Декстера лише його сестру згадаю, і це явно не вона. Фільм глянув, і навіть нічого так, чекав гіршого ! Не сказати щоб чимось здивував/вразив, але і не повний відстій, цілком можна дивитись !
Ваш часовий пояс: GMT + 2 Години

Нова тема   Відповісти