Пташиний короб / Bird Box (2018) 1080p H.265 Ukr/Eng | Sub Eng | Без реклами

Нові коментарі

Нова тема   Відповісти
Автор Повідомлення
Anonymous 







2019-01-07 20:58  
Пташиний короб / Bird Box (2018) 1080p H.265 Ukr/Eng | Sub Eng

Пташиний короб / Bird Box (2018) 1080p H.265 Ukr/Eng | Sub Eng | Без реклами


Жанр: драма, фантастика, трилер, жахи
Країна: США
Кінокомпанія: Bluegrass Films, Chris Morgan Production, Universal Pictures
Режисер: Сюзанн Бір
Актори: Сандра Баллок, Сара Полсон, Роза Салазар, Джон Малкович, Давід Дастмалчян, Парміндер Награ, Машин Ган Келлі, Джекі Вівер, Ліл Рел Хаурі, Треванте Роудс

Сюжет:
Атмосферний науково-фантастичний хоррор про паранормальну епідемію психічних розладів, що може призвести до знищення людства.За сюжетом, невідома науці пошесть психічних хвороб поставила людство на межу виживання. Більшість людей перетворюється на божевільних, що під час спалахів агресії намагаються покінчити життя самогубством. Щоб врятувати власне життя і життя своїх дітей, мати-одиначка Мелорі пускається в небезпечну подорож. Щоб не збожеволіти, в цьому світі доводиться подорожувати з зав'язаними очима.

Реліз без реклами

Тривалість: 02:03:46
Якість:
Відео:
кодек: H.265 (HEVC)
розмір кадру: 1920 x 800
бітрейт: 2 001 кб/с
частота кадрів: 24 fps
біт піксель: 0.054 BPP
бітова глибина: 10 біт
Увага! Перед завантаженням переконайтесь, що ваш пристрій відтворення (та/або ПЗ) підтримує H.265 (HEVC)

Аудіо # 1:
мова: українська
переклад: багатоголосий закадровий | DniproFilm
кодек: AC-3 5.1
бітрейт: 384 кб/с
Підтримати українське озвучення
Для студії DniproFilm дуже важлива популярність, чим популярнішою буде студія, тим більшу кількість українського озвучення до нових фільмів та серіалів в неї замовлятимуть. Тому прохання до не байдужих підписуватися на їх телеграм канал
Аудіо # 2:
мова: англійська
переклад: оригінал
кодек: E-AC-3 5.1
бітрейт: 448 кб/с

Субтитри # 1:
мова: англійська (Full),
тип: програмні (м'які)
формат: *.srt

Субтитри # 2:
мова: англійська (SDH),
тип: програмні (м'які)
формат: *.srt


Info
Код:
General
Unique ID                                : 242361906224722003595352702849999721486 (0xB655348BC4B4FF790B30A2FAD0CC540E)
Complete name                            : D:\Video\Bird Box (2018) 1080p H.265 [UKR_ENG].
Format                                   :
Format version                           : Version 4 / Version 2
File size                                : 2.45 GiB
Duration                                 : 2 h 3 min
Overall bit rate                         : 2 837 kb/s
Movie name                               : Bird Box (2018)
Encoded date                             : UTC 2019-01-10 08:58:17
Writing application                      : v20.0.0 ('I Am The Sun') 32-bit
Writing library                          : libebml v1.3.5 + v1.4.8
Cover                                    : Yes
Attachments                              : Cover.jpg

Video
ID                                       : 1
Format                                   : HEVC
Format/Info                              : High Efficiency Video Coding
Format profile                           : Main [email protected]@Main
Codec ID                                 : V_MPEGH/ISO/HEVC
Duration                                 : 2 h 3 min
Bit rate                                 : 2 001 kb/s
Width                                    : 1 920 pixels
Height                                   : 800 pixels
Display aspect ratio                     : 2.40:1
Frame rate mode                          : Constant
Frame rate                               : 24.000 FPS
Color space                              : YUV
Chroma subsampling                       : 4:2:0
Bit depth                                : 10 bits
Bits/(Pixel*Frame)                       : 0.054
Stream size                              : 1.73 GiB (71%)
Title                                    : Bird Box (2018)
Writing library                          : x265 3.0_RC+2-8f1c154aae5e:[Windows][MSVC 1920][64 bit] 10bit
Encoding settings                        : cpuid=1111039 / frame-threads=4 / numa-pools=16 / wpp / no-pmode / no-pme / no-psnr / ssim / log-level=2 / input-csp=1 / input-res=1920x800 / interlace=0 / total-frames=178234 / level-idc=0 / high-tier=1 / uhd-bd=0 / ref=4 / no-allow-non-conformance / no-repeat-headers / annexb / no-aud / no-hrd / info / hash=0 / no-temporal-layers / open-gop / min-keyint=24 / keyint=250 / gop-lookahead=0 / bframes=4 / b-adapt=2 / b-pyramid / bframe-bias=0 / rc-lookahead=25 / lookahead-slices=4 / scenecut=40 / radl=0 / no-splice / no-intra-refresh / ctu=64 / min-cu-size=8 / rect / no-amp / max-tu-size=32 / tu-inter-depth=1 / tu-intra-depth=1 / limit-tu=0 / rdoq-level=2 / dynamic-rd=0.00 / ssim-rd / signhide / no-tskip / nr-intra=0 / nr-inter=0 / no-constrained-intra / strong-intra-smoothing / max-merge=3 / limit-refs=3 / limit-modes / me=3 / subme=3 / merange=57 / temporal-mvp / weightp / no-weightb / no-analyze-src-pics / deblock=-2:-2 / sao / sao-non-deblock / rd=4 / early-skip / rskip / no-fast-intra / no-tskip-fast / no-cu-lossless / no-b-intra / no-splitrd-skip / rdpenalty=0 / psy-rd=0.00 / psy-rdoq=1.00 / no-rd-refine / no-lossless / cbqpoffs=0 / crqpoffs=0 / rc=crf / crf=21.5 / qcomp=0.60 / qpstep=4 / stats-write=0 / stats-read=0 / ipratio=1.40 / pbratio=1.30 / aq-mode=3 / aq-strength=1.00 / cutree / zone-count=0 / no-strict-cbr / qg-size=32 / no-rc-grain / qpmax=69 / qpmin=0 / no-const-vbv / sar=0 / overscan=0 / videoformat=5 / range=0 / colorprim=2 / transfer=2 / colormatrix=2 / chromaloc=0 / display-window=0 / max-cll=0,0 / min-luma=0 / max-luma=1023 / log2-max-poc-lsb=8 / vui-timing-info / vui-hrd-info / slices=1 / no-opt-qp-pps / no-opt-ref-list-length-pps / no-multi-pass-opt-rps / scenecut-bias=0.05 / no-opt-cu-delta-qp / no-aq-motion / no-hdr / no-hdr-opt / no-dhdr10-opt / no-idr-recovery-sei / analysis-reuse-level=5 / scale-factor=0 / refine-intra=0 / refine-inter=0 / refine-mv=0 / refine-ctu-distortion=0 / no-limit-sao / ctu-info=0 / no-lowpass-dct / refine-analysis-type=0 / copy-pic=1 / max-ausize-factor=1.0 / no-dynamic-refine / no-single-sei / no-hevc-aq / qp-adaptation-range=1.00
Default                                  : Yes
Forced                                   : No

Audio #1
ID                                       : 2
Format                                   : AC-3
Format/Info                              : Audio Coding 3
Codec ID                                 : A_AC3
Duration                                 : 2 h 3 min
Bit rate mode                            : Constant
Bit rate                                 : 384 kb/s
Channel(s)                               : 6 channels
Channel positions                        : Front: L C R, Side: L R, LFE
Sampling rate                            : 48.0 kHz
Frame rate                               : 31.250 FPS (1536 SPF)
Bit depth                                : 16 bits
Compression mode                         : Lossy
Stream size                              : 340 MiB (14%)
Title                                    : БЗ - DniproFilm
Language                                 : Ukrainian
Service kind                             : Complete Main
Default                                  : Yes
Forced                                   : Yes

Audio #2
ID                                       : 3
Format                                   : E-AC-3
Format/Info                              : Enhanced Audio Coding 3
Format profile                           : E-AC-3+Atmos / E-AC-3
Codec ID                                 : A_EAC3
Duration                                 : 2 h 3 min
Bit rate mode                            : Constant
Bit rate                                 : 448 kb/s
Channel(s)                               : 15 objects / 6 channels
Channel positions                        : 15 objects / Front: L C R, Side: L R, LFE
Sampling rate                            : 48.0 kHz
Frame rate                               : 187.500 FPS (256 SPF)
Compression mode                         : Lossy
Stream size                              : 397 MiB (16%)
Title                                    : Original
Language                                 : English
Service kind                             : Complete Main
Default                                  : No
Forced                                   : No

Text #1
ID                                       : 4
Format                                   : UTF-8
Codec ID                                 : S_TEXT/UTF8
Codec ID/Info                            : UTF-8 Plain Text
Duration                                 : 1 h 56 min
Bit rate                                 : 53 b/s
Count of elements                        : 1454
Stream size                              : 45.5 KiB (0%)
Title                                    : Full
Language                                 : English
Default                                  : Yes
Forced                                   : No

Text #2
ID                                       : 5
Format                                   : UTF-8
Codec ID                                 : S_TEXT/UTF8
Codec ID/Info                            : UTF-8 Plain Text
Duration                                 : 1 h 59 min
Bit rate                                 : 61 b/s
Count of elements                        : 1727
Stream size                              : 53.4 KiB (0%)
Title                                    : SDH
Language                                 : English
Default                                  : No
Forced                                   : No
Світлини




Джерело:
Особиста оцінка: 0 - не дивився


>>> Усі мої релізи <<<



Авторський реліз (завантажувати можна без реєстрації)
 Трекер:    Зареєстрований   

Завантажити / скачати фільм українською



відео для новачків



 Зареєстрований:   2019-01-10 12:58
 Розмір:   2.45 GB 
 Оцінка фільму:   8/10 (Голосів: 10)
   
Інші релізи
   Пташиний короб / Bird Box (2018) AVC Ukr/Eng | Sub Eng staf777  3 / 0   2.26 GB   2019-01-30 10:33 
   Пташиний короб / Bird Box (2018) 1080p Ukr/Eng | Sub Eng | Без реклами staf777  4 / 0   8.25 GB   2019-01-27 20:37 
   Пташиний короб / Bird Box (2018) 720p Ukr/Eng | Sub Eng leicheman  6 / 0   3.28 GB   2019-01-10 02:41 
   Пташиний короб / Bird Box (2018) DniproFilm  18 / 0   1.88 GB   2018-12-25 03:27 
   Пташиний короб / Bird Box (2018) 720p Ukr/Eng DniproFilm  4 / 0   4.29 GB   2018-12-25 03:27 
   Пташиний короб / Bird Box (2018) 1080p Ukr/Eng DniproFilm  8 / 0   6.84 GB   2018-12-25 03:27 
Anonymous 







2019-01-10 12:59  
Фікс укр. доріжки.
Ваш часовий пояс: GMT + 2 Години

Нова тема   Відповісти