Пташиний короб / Bird Box (2018) 1080p Ukr/Eng | Sub Eng | Без реклами

Нові коментарі

Нова тема   Відповісти
Автор Повідомлення
staf777 
Попереджень: 1
Попереджень: 1 


З нами з: 16.11.16
Востаннє: 15.01.19
Повідомлень: 2053

2019-01-07 17:53  
Пташиний короб / Bird Box (2018) 1080p Ukr/Eng | Sub Eng

Пташиний короб / Bird Box (2018) 1080p Ukr/Eng | Sub Eng | Без реклами


Жанр: драма, фантастика, трилер, жахи
Країна: США



Кінокомпанія: Bluegrass Films, Chris Morgan Production, Universal Pictures
Режисер: Сюзанн Бір
Актори: Сандра Баллок, Сара Полсон, Роза Салазар, Джон Малкович, Давід Дастмалчян, Парміндер Награ, Машин Ган Келлі, Джекі Вівер, Ліл Рел Хаурі, Треванте Роудс

Сюжет:
Атмосферний науково-фантастичний хоррор про паранормальну епідемію психічних розладів, що може призвести до знищення людства.За сюжетом, невідома науці пошесть психічних хвороб поставила людство на межу виживання. Більшість людей перетворюється на божевільних, що під час спалахів агресії намагаються покінчити життя самогубством. Щоб врятувати власне життя і життя своїх дітей, мати-одиначка Мелорі пускається в небезпечну подорож. Щоб не збожеволіти, в цьому світі доводиться подорожувати з зав'язаними очима.


Реліз без реклами


Тривалість: 02:03:48
Якість: 1080p

Відео:
кодек:
розмір кадру: 1920x800
бітрейт: 8702 кб/с

Аудіо # 1:
мова: українська
переклад: багатоголосий закадровий | DniproFilm
кодек: 5.1
бітрейт: 448 кб/с
примітка: є ґандж - відлуння англійської доріжки

Аудіо # 2:
мова: англійська
переклад: оригінал
кодек: E- 5.1
бітрейт: 448 кб/с

Субтитри # 1-2:
мова: англійська
тип: програмні (м'які)
формат: *.srt
Info
General
Unique ID : 179017429035467971878828387933748869375 (0x86AD80B1E87A8F2970931352FC2A38FF)
Complete name : P:\HD українською » Фільми в HD\Жахи\Bird Box (2018) 1080p [UKR_ENG] [Hurtom].
Format :
Format version : Version 4 / Version 2
File size : 8.30 GiB
Duration : 2 h 3 min
Overall bit rate : 9 600 kb/s
Movie name : Bird Box (2018) 1080p [UKR_ENG] [Hurtom]
Encoded date : UTC 2019-01-07 16:15:14
Writing application : v24.0.0 ('Beyond The Pale') 64-bit
Writing library : libebml v1.3.6 + v1.4.9
Cover : Yes
Attachments : cover.jpg

Video
ID : 1
Format : AVC
Format/Info : Advanced Video Codec
Format profile : [email protected]
Format settings : CABAC / 5 Ref Frames
Format settings, CABAC : Yes
Format settings, ReFrames : 5 frames
Codec ID : V_MPEG4/ISO/AVC
Duration : 2 h 3 min
Bit rate : 8 702 kb/s
Width : 1 920 pixels
Height : 800 pixels
Display aspect ratio : 2.40:1
Frame rate mode : Constant
Frame rate : 24.000 FPS
Color space : YUV
Chroma subsampling : 4:2:0
Bit depth : 8 bits
Scan type : Progressive
Bits/(Pixel*Frame) : 0.236
Stream size : 7.52 GiB (91%)
Writing library : core 157 r2932+2 (master: 303c484 / tmod: 1b88d0a) [X86_64]
Encoding settings : cabac=1 / ref=5 / deblock=1:-3:-3 / analyse=0x3:0x133 / me=umh / subme=11 / psy=1 / psy_rd=1.05:0.15 / mixed_ref=1 / me_range=48 / chroma_me=1 / trellis=2 / 8x8dct=1 / cqm=0 / deadzone=6,6 / fast_pskip=0 / chroma_qp_offset=-3 / threads=25 / lookahead_threads=6 / sliced_threads=0 / nr=0 / decimate=0 / interlaced=0 / bluray_compat=0 / constrained_intra=0 / bframes=10 / b_pyramid=2 / b_adapt=2 / b_bias=0 / direct=3 / weightb=1 / open_gop=0 / weightp=2 / keyint=250 / keyint_min=24 / scenecut=40 / intra_refresh=0 / rc_lookahead=60 / rc=crf / mbtree=0 / crf=17.0 / qcomp=0.70 / qpmin=0 / qpmax=69 / qpstep=4 / vbv_maxrate=62500 / vbv_bufsize=78125 / crf_max=0.0 / nal_hrd=none / filler=0 / ip_ratio=1.25 / pb_ratio=1.20 / aq=3:0.70
Default : Yes
Forced : No

Audio #1
ID : 2
Format : AC-3
Format/Info : Audio Coding 3
Codec ID : A_AC3
Duration : 2 h 3 min
Bit rate mode : Constant
Bit rate : 448 kb/s
Channel(s) : 6 channels
Channel positions : Front: L C R, Side: L R, LFE
Sampling rate : 48.0 kHz
Frame rate : 31.250 FPS (1536 SPF)
Bit depth : 16 bits
Compression mode : Lossy
Stream size : 397 MiB (5%)
Title : MVO - DniproFilm
Language : Ukrainian
Service kind : Complete Main
Default : Yes
Forced : Yes

Audio #2
ID : 3
Format : E-AC-3
Format/Info : Enhanced Audio Coding 3
Format profile : E-AC-3+Atmos / E-AC-3
Codec ID : A_EAC3
Duration : 2 h 3 min
Bit rate mode : Constant
Bit rate : 448 kb/s
Channel(s) : 15 objects / 6 channels
Channel positions : 15 objects / Front: L C R, Side: L R, LFE
Sampling rate : 48.0 kHz
Frame rate : 187.500 FPS (256 SPF)
Compression mode : Lossy
Stream size : 397 MiB (5%)
Title : Original
Language : English
Service kind : Complete Main
Default : No
Forced : No

Text #1
ID : 4
Format : UTF-8
Codec ID : S_TEXT/UTF8
Codec ID/Info : UTF-8 Plain Text
Duration : 1 h 56 min
Bit rate : 53 b/s
Count of elements : 1454
Stream size : 45.5 KiB (0%)
Language : English
Default : No
Forced : No

Text #2
ID : 5
Format : UTF-8
Codec ID : S_TEXT/UTF8
Codec ID/Info : UTF-8 Plain Text
Duration : 1 h 59 min
Bit rate : 61 b/s
Count of elements : 1727
Stream size : 53.4 KiB (0%)
Title : SDH
Language : English
Default : No
Forced : No
Скріншоти



Робота зі звуком leicheman
Джерело: &
Особиста оцінка: 8 - мені сподобалося


Авторський реліз (завантажувати можна без реєстрації)
 Трекер:    Зареєстрований   

Завантажити / скачати фільм українською



відео для новачків



 Зареєстрований:   2019-01-07 18:36
 Розмір:   8.3 GB 
 Оцінка фільму:   7.9/10 (Голосів: 12)
   
Інші релізи
   Пташиний короб / Bird Box (2018) 1080p H.265 Ukr/Eng | Sub Eng | Без реклами -Star-Lord-  12 / 1   2.45 GB   2019-01-10 11:58 
   Пташиний короб / Bird Box (2018) 720p Ukr/Eng | Sub Eng leicheman  27 / 0   3.28 GB   2019-01-10 01:41 
   Пташиний короб / Bird Box (2018) AVC Ukr/Eng | Sub Eng staf777  55 / 2   2.32 GB   2019-01-07 17:40 
   Пташиний короб / Bird Box (2018) DniproFilm  97 / 0   1.88 GB   2018-12-25 02:27 
   Пташиний короб / Bird Box (2018) 720p Ukr/Eng DniproFilm  20 / 0   4.29 GB   2018-12-25 02:27 
   Пташиний короб / Bird Box (2018) 1080p Ukr/Eng DniproFilm  53 / 0   6.84 GB   2018-12-25 02:27 
d1monster 
Свій


З нами з: 05.12.09
Востаннє: 22.01.19
Повідомлень: 81

2019-01-08 20:49  
Без реклами?
igor911 
Відео Гуртом
Відео Гуртом


З нами з: 18.01.08
Востаннє: 24.01.19
Повідомлень: 11904

2019-01-08 21:08  
d1monster, так, додав це в опис.
Mr_GoldMan 
Новенький


З нами з: 01.12.13
Востаннє: 12.01.19
Повідомлень: 14

2019-01-09 10:03  
Проблеми із звуком. Оригінальна доріжка звучить надто голосно до того ж із відлунням.
Ваш часовий пояс: GMT + 2 Години

Нова тема   Відповісти