Пташиний короб / Bird Box (2018) AVC Ukr/Eng | Sub Eng

Нові коментарі

Нова тема   Відповісти
Автор Повідомлення
staf777 
Попереджень: 1
Попереджень: 1 


З нами з: 16.11.16
Востаннє: 15.01.19
Повідомлень: 2053

2019-01-07 17:40  
Пташиний короб / Bird Box (2018) AVC Ukr/Eng | Sub Eng

Пташиний короб / Bird Box (2018) AVC Ukr/Eng | Sub Eng


Жанр: драма, фантастика, трилер, жахи
Країна: США



Кінокомпанія: Bluegrass Films, Chris Morgan Production, Universal Pictures
Режисер: Сюзанн Бір
Актори: Сандра Баллок, Сара Полсон, Роза Салазар, Джон Малкович, Давід Дастмалчян, Парміндер Награ, Машин Ган Келлі, Джекі Вівер, Ліл Рел Хаурі, Треванте Роудс

Сюжет:
Атмосферний науково-фантастичний хоррор про паранормальну епідемію психічних розладів, що може призвести до знищення людства.За сюжетом, невідома науці пошесть психічних хвороб поставила людство на межу виживання. Більшість людей перетворюється на божевільних, що під час спалахів агресії намагаються покінчити життя самогубством. Щоб врятувати власне життя і життя своїх дітей, мати-одиначка Мелорі пускається в небезпечну подорож. Щоб не збожеволіти, в цьому світі доводиться подорожувати з зав'язаними очима.


Тривалість: 02:03:48
Якість:
Відео: AVC
кодек:
розмір кадру: 1024x426
бітрейт: 1784 кб/с

Аудіо # 1:
мова: українська
переклад: багатоголосий закадровий | DniproFilm
кодек: 5.1
бітрейт: 448 кб/с
примітка: є невеличкий ґандж - чутно відлуння англійської доріжки

Аудіо # 2:
мова: англійська
переклад: оригінал
кодек: 5.1
бітрейт: 448 кб/с

Субтитри:
мова: англійська
тип: програмні (м'які)
формат: *.srt
Реліз без реклами
MI
General
Unique ID : 280611262237113119825345600301624518124 (0xD31BC3657F4D8372A4E54EF7F33CE5EC)
Complete name : N:\Фільми AVC\Жахи\Bird.Box.2018..AVC.[Ukr.Eng.Sub.Eng][Hurtom].
Format :
Format version : Version 4 / Version 2
File size : 2.32 GiB
Duration : 2 h 3 min
Overall bit rate : 2 680 kb/s
Movie name : Bird.Box.2018..AVC.[Ukr.Eng.Sub.Eng][Hurtom]
Encoded date : UTC 2019-01-07 15:03:41
Writing application : v24.0.0 ('Beyond The Pale') 64-bit
Writing library : libebml v1.3.6 + v1.4.9
Cover : Yes
Attachments : cover.bird.box.jpg

Video
ID : 1
Format : AVC
Format/Info : Advanced Video Codec
Format profile : [email protected]
Format settings : CABAC / 10 Ref Frames
Format settings, CABAC : Yes
Format settings, ReFrames : 10 frames
Codec ID : V_MPEG4/ISO/AVC
Duration : 2 h 3 min
Bit rate : 1 784 kb/s
Width : 1 024 pixels
Height : 426 pixels
Display aspect ratio : 2.40:1
Frame rate mode : Constant
Frame rate : 24.000 FPS
Color space : YUV
Chroma subsampling : 4:2:0
Bit depth : 8 bits
Scan type : Progressive
Bits/(Pixel*Frame) : 0.170
Stream size : 1.54 GiB (66%)
Writing library : core 146 r2538 121396c
Encoding settings : cabac=1 / ref=10 / deblock=1:-3:-3 / analyse=0x3:0x113 / me=umh / subme=11 / psy=1 / psy_rd=0.98:0.04 / mixed_ref=1 / me_range=48 / chroma_me=1 / trellis=2 / 8x8dct=1 / cqm=0 / deadzone=21,11 / fast_pskip=1 / chroma_qp_offset=-3 / threads=6 / lookahead_threads=1 / sliced_threads=0 / nr=0 / decimate=1 / interlaced=0 / bluray_compat=0 / constrained_intra=0 / bframes=11 / b_pyramid=2 / b_adapt=2 / b_bias=0 / direct=3 / weightb=1 / open_gop=0 / weightp=2 / keyint=240 / keyint_min=24 / scenecut=40 / intra_refresh=0 / rc_lookahead=40 / rc=2pass / mbtree=0 / bitrate=1784 / ratetol=1.0 / qcomp=0.60 / qpmin=0 / qpmax=69 / qpstep=4 / cplxblur=20.0 / qblur=0.5 / vbv_maxrate=50000 / vbv_bufsize=62500 / nal_hrd=none / filler=0 / ip_ratio=1.40 / pb_ratio=1.30 / aq=1:1.00
Language : English
Default : Yes
Forced : No

Audio #1
ID : 2
Format : AC-3
Format/Info : Audio Coding 3
Codec ID : A_AC3
Duration : 2 h 3 min
Bit rate mode : Constant
Bit rate : 448 kb/s
Channel(s) : 6 channels
Channel positions : Front: L C R, Side: L R, LFE
Sampling rate : 48.0 kHz
Frame rate : 31.250 FPS (1536 SPF)
Bit depth : 16 bits
Compression mode : Lossy
Stream size : 397 MiB (17%)
Title : MVO - DniproFilm
Language : Ukrainian
Service kind : Complete Main
Default : Yes
Forced : Yes

Audio #2
ID : 3
Format : E-AC-3
Format/Info : Enhanced Audio Coding 3
Format profile : E-AC-3+Atmos / E-AC-3
Codec ID : A_EAC3
Duration : 2 h 3 min
Bit rate mode : Constant
Bit rate : 448 kb/s
Channel(s) : 15 objects / 6 channels
Channel positions : 15 objects / Front: L C R, Side: L R, LFE
Sampling rate : 48.0 kHz
Frame rate : 187.500 FPS (256 SPF)
Compression mode : Lossy
Stream size : 397 MiB (17%)
Title : [Original]
Language : English
Service kind : Complete Main
Default : No
Forced : No

Text
ID : 4
Format : UTF-8
Codec ID : S_TEXT/UTF8
Codec ID/Info : UTF-8 Plain Text
Duration : 1 h 59 min
Bit rate : 61 b/s
Count of elements : 1727
Stream size : 53.4 KiB (0%)
Title : SDH
Language : English
Default : No
Forced : No



Робота зі звуком leicheman
Джерело: &
Особиста оцінка: 8 - мені сподобалося


Авторський реліз (завантажувати можна без реєстрації)
 Трекер:    Зареєстрований   

Завантажити / скачати фільм українською



відео для новачків



 Зареєстрований:   2019-01-07 17:40
 Розмір:   2.32 GB 
 Оцінка фільму:   8.1/10 (Голосів: 32)
   
Інші релізи
antik_2008 
Релізер і модератор відео


З нами з: 20.10.08
Востаннє: 24.01.19
Повідомлень: 1733

2019-01-07 17:45  
staf777 написано:

Аудіо # 1:
мова: українська
переклад: багатоголосий закадровий | DniproFilm
кодек: 2.0
бітрейт: 192 кб/с

???

5.1 додати можна було би.

staf777 
Попереджень: 1
Попереджень: 1 


З нами з: 16.11.16
Востаннє: 15.01.19
Повідомлень: 2053

2019-01-07 17:48  
antik_2008
Там 5.1 - провтикав при оформлені
+1080

Rabbit- 
Новенький


З нами з: 14.09.14
Востаннє: 23.01.19
Повідомлень: 16

2019-01-08 15:31  
"Провтикав" -- це те ж саме, що й "гальмо"?
iamigor 
Новенький


З нами з: 19.09.17
Востаннє: 22.01.19
Повідомлень: 3

2019-01-09 01:00  
Отличный фильм в своём жанре 10/10. Рекомендую.
staf777 
Попереджень: 1
Попереджень: 1 


З нами з: 16.11.16
Востаннє: 15.01.19
Повідомлень: 2053

2019-01-09 13:24  
Rabbit-
... треба мабуть менше дуть

Додано через 37 хвилин 19 секунд:

Цитата:
Отличный фильм в своём жанре 10/10. Рекомендую.

... я конечно вибачаюсь але треба писати нашою мовою все ж як то ні красиво висловлюватись мовою окупантів ... я в загалі незнайка в рідній мові багато людей тут мене недолюбливают за мій напівкацапській але я питаюся хоч робити менше помилок і писати українською... що правда поки получается не зовсім Happy

la-le 
Новенький


З нами з: 25.12.16
Востаннє: 10.01.19
Повідомлень: 7

2019-01-09 19:58  
Класний фільм - постійна напруга та невизначеність!

Трохи розчарував фінал, бо жодної відповіді (чи хоча б натяку) на питання хто/як/чому?
Тверда 8/10 Happy

Додано через 22 хвилини 53 секунди:

Не витримала - пішла шукати книгу, за якою знято, щоб зрозуміти чи буде продовження...

На Гудрідсі багато хто мав аналогічні питання Happy) Відповідь:
Цитата:
No, the author is writing a series of unrelated novels, each one focused on a different one of the five primary senses -- the next one is about hearing ("Black Mad Wheel")

Вільний переклад: НІ, продовження цієї історії не буде, бо автор задумав написати непов'язані між собою твори, кожен сфокусований на одному з 5ти відчуттів людини.

Крім того книжка зібрала трохи нагород:
Bram Stoker Award Nominee for Best First Novel (2014), Shirley Jackson Award Nominee for Novel (2014), Goodreads Choice Award Nominee for Horror (2014), James Herbert Award Nominee (2015), This is Horror Award for Novel (2014)

-Star-Lord- 
Попереджень: 1
Попереджень: 1 


З нами з: 09.08.18
Востаннє: 24.01.19
Повідомлень: 492

2019-01-09 22:28  
В цьому релізі є відлуння?
igor911 
Відео Гуртом
Відео Гуртом


З нами з: 18.01.08
Востаннє: 24.01.19
Повідомлень: 11904

2019-01-09 22:35  
iamigor, зверни увагу - в нас спілкуються українською:
Цитата:
2. Правила та обмеження форуму

Всім без винятку заборонено:
2.1 Спілкуватися іншою мовою, аніж літературною українською; використовувати для написання українських слів іншу абетку, аніж кирилицю

NEOleh 
Новенький


З нами з: 20.08.10
Востаннє: 23.01.19
Повідомлень: 3

2019-01-10 12:59  
Цікаве кіно, рекомендую
Victor_Scythian 
Поважний учасник


З нами з: 06.01.17
Востаннє: 24.01.19
Повідомлень: 229

2019-01-10 17:15  
10/10
Чудове кіно.
Сандра Баллок, як завжди на висоті!

Rabbit- 
Новенький


З нами з: 14.09.14
Востаннє: 23.01.19
Повідомлень: 16

2019-01-12 18:15  
staf777
Згоден.
Не "дуй" більше. Не твоє.

13monah 
Новенький


З нами з: 10.04.10
Востаннє: 22.01.19
Повідомлень: 6

2019-01-13 22:17  
таке собі кіно, кінцівка взагалі слаба. на раз можна подивитися
hitmanhunter 
Свій


З нами з: 15.09.16
Востаннє: 21.01.19
Повідомлень: 73

2019-01-14 10:24  
la-le написано:
але я питаюся хоч робити менше помилок і писати українською...

головне старатися і йти до мети, і все буде ок)

Ваш часовий пояс: GMT + 2 Години

Нова тема   Відповісти