Цілуй мене на смерть / Kiss Me Deadly (1955) Remux 1080p Ukr/Eng | Sub Ukr/Eng

Нові коментарі

Нова тема   Відповісти
Автор Повідомлення
MakRA 
Свій


З нами з: 10.11.18
Востаннє: 24.01.19
Повідомлень: 113

2019-01-07 16:54  
Цілуй мене на смерть / Kiss Me Deadly (1955) Remux 1080p Ukr/Eng | Sub Ukr/Eng

Цілуй мене на смерть / Kiss Me Deadly (1955) Remux 1080p Ukr/Eng | Sub Ukr/Eng


Жанр: детектив, кримінальний, трилер, нуар
Країна: США



Кінокомпанія: Parklane Pictures Inc.
Режисер: Роберт Олдріч [Robert Aldrich]
Актори: Клоріс Лічмен [Cloris Leachman], Веслі Едді [Robert Wesley Addy], Джек Елам [Jack Elam], Нет «Кінг» Коул [Nat «King» Cole], Пол Стюарт [Paul Stewart)], Стразер Мартін [Strother Martin], Ральф Мікер [Ralph Meeker], Марджорі Беннетт [Marjorie Bennett], Морт Маршалл [Mort Marshall], Джеймс Маккэлліон [James McCallion].

Сюжет:
Культовий нуар Роберта Олдріча.
Пізнього вечора машину приватного детектива Майка Хаммера зупиняє боса перелякана дівчина. Виявляється, що її переслідують і поліція, і злочинці, бо вона знає важливу таємницю. Майк також хоче її дізнатися.
Екранізація однойменного детективного роману Мікі Спіллейна.


Тривалість: 01:46:13
Якість: Remux 1080p
Відео:
кодек:
розмір кадру: 1920 х 1080
бітрейт: 34.9 Mb/s

Аудіо # 1:
мова: українська
переклад: одноголосий закадровий [Satkur]
кодек: 2.0
бітрейт: 192 kb/s

Аудіо # 2:
мова: англійська
переклад: оригінал
кодек: 1.0
бітрейт: 80.0 kb/s

Озвучення зроблено SATKUR по субтитрам: rooban

Субтитри:
мова: українська
тип: пререндерні
формат: *.pgs

Субтитри:
мова: англійська
тип: пререндерні
формат: *.pgs
Info
General
Unique ID : 57259031021505386338736421041627043403 (0x2B13B030B301A3B14DACA3632F95964B)
Complete name : E:\! Моя роздача\Kiss Me Deadly (1955) Remux 1080p UkrEng Sub UkrEng [Hurtom].
Format :
Format version : Version 4 / Version 2
File size : 26.1 GiB
Duration : 1 h 46 min
Overall bit rate mode : Variable
Overall bit rate : 35.2 Mb/s
Encoded date : UTC 2019-01-07 11:49:49
Writing application : v25.0.0 ('Prog Noir') 64-bit
Writing library : libebml v1.3.6 + v1.4.9

Video
ID : 1
Format : AVC
Format/Info : Advanced Video Codec
Format profile : [email protected]
Format settings, CABAC : Yes
Format settings, RefFrames : 4 frames
Codec ID : V_MPEG4/ISO/AVC
Duration : 1 h 46 min
Bit rate mode : Variable
Bit rate : 34.9 Mb/s
Maximum bit rate : 37.0 Mb/s
Width : 1 920 pixels
Height : 1 080 pixels
Display aspect ratio : 16:9
Frame rate mode : Constant
Frame rate : 23.976 (24000/1001) FPS
Color space : YUV
Chroma subsampling : 4:2:0
Bit depth : 8 bits
Scan type : Progressive
Bits/(Pixel*Frame) : 0.702
Stream size : 25.9 GiB (99%)
Title : Kiss Me Deadly (1955) Remux 1080p Ukr/Eng Sub Ukr/Eng [Hurtom]
Language : Ukrainian
Default : Yes
Forced : No

Audio #1
ID : 2
Format : AC-3
Format/Info : Audio Coding 3
Format settings, Endianness : Big
Codec ID : A_AC3
Duration : 1 h 46 min
Bit rate mode : Constant
Bit rate : 192 kb/s
Channel(s) : 2 channels
Channel positions : Front: L R
Sampling rate : 48.0 kHz
Frame rate : 31.250 FPS (1536 SPF)
Bit depth : 16 bits
Compression mode : Lossy
Stream size : 146 MiB (1%)
Title : VO [Satkur]
Language : Ukrainian
Service kind : Complete Main
Default : Yes
Forced : Yes

Audio #2
ID : 3
Format : AC-3
Format/Info : Audio Coding 3
Format settings, Endianness : Big
Codec ID : A_AC3
Duration : 1 h 46 min
Bit rate mode : Constant
Bit rate : 80.0 kb/s
Channel(s) : 1 channel
Channel positions : Front: C
Sampling rate : 48.0 kHz
Frame rate : 31.250 FPS (1536 SPF)
Bit depth : 16 bits
Compression mode : Lossy
Stream size : 60.8 MiB (0%)
Title : Original
Language : English
Service kind : Complete Main
Default : No
Forced : No

Text #1
ID : 4
Format : PGS
Muxing mode : zlib
Codec ID : S_HDMV/PGS
Codec ID/Info : Picture based subtitle format used on BDs/HD-DVDs
Duration : 1 h 43 min
Bit rate : 22.0 kb/s
Count of elements : 2296
Stream size : 16.4 MiB (0%)
Title : Ukr
Language : Ukrainian
Default : Yes
Forced : Yes

Text #2
ID : 5
Format : PGS
Muxing mode : zlib
Codec ID : S_HDMV/PGS
Codec ID/Info : Picture based subtitle format used on BDs/HD-DVDs
Duration : 1 h 43 min
Bit rate : 24.8 kb/s
Count of elements : 2358
Stream size : 18.4 MiB (0%)
Title : Eng
Language : English
Default : No
Forced : No
Скріншоти
Джерело: &
Особиста оцінка: 10 - без зайвих вагань рекомендую всім!


Авторський реліз (завантажувати можна без реєстрації)
 Трекер:    Зареєстрований   

Завантажити / скачати фільм українською



відео для новачків



 Зареєстрований:   2019-01-07 16:54
 Розмір:   26.11 GB 
 Оцінка фільму:   10/10 (Голосів: 3)
   
Інші релізи
MakRA 
Свій


З нами з: 10.11.18
Востаннє: 24.01.19
Повідомлень: 113

2019-01-07 16:57  
Робив для себе, приймаю зауваження! Зі звуком, звичайно, все поганенько...
val63 
Свій


З нами з: 03.01.16
Востаннє: 24.01.19
Повідомлень: 134

2019-01-16 21:42  
Постер вражає, 10\10
Ваш часовий пояс: GMT + 2 Години

Нова тема   Відповісти