Як Ґрінч украв Різдво! / How the Grinch Stole Christmas! (1966) 1080p H.265 Ukr/Eng | Sub Eng

Нові коментарі

Нова тема   Відповісти
Автор Повідомлення
-Star-Lord- 
Попереджень: 1
Попереджень: 1 


З нами з: 09.08.18
Востаннє: 22.01.19
Повідомлень: 464

2019-01-07 12:46  
Як Ґрінч украв Різдво! / How the Grinch Stole Christmas! (1966) 1080p H.265 Ukr/Eng | Sub Eng

Як Ґрінч украв Різдво! / How the Grinch Stole Christmas! (1966) 1080p H.265 Ukr/Eng | Sub Eng


Жанр: комедія, сімейний
Країна: США
Кінокомпанія: The Cat in the Hat Productions, MGM Television
Режисер: Чак Джонс, Бен Вашман
Сюжет:
Холодний та ненависний, Ґрінч не сприймає думки про те, як в близькому містечку люди радісно святкуватимуть Різдво. Отже, перевдягнувшись за Санта Клауса, він краде всі різдвяні речі з домівок в переконанні, що так він змусить їх на Різдво сумувати.
Українською мовою озвучено студією Омікрон на замовлення HURTOM.COM

Тривалість: 00:25:45
Якість:
Відео:
кодек: H.265 (HEVC)
розмір кадру: 1480 x 1080
бітрейт: 5 499 кб/с
частота кадрів: 23.976 fps
біт піксель: 0.143 BPP
бітова глибина: 10 біт
Увага! Перед завантаженням переконайтесь, що ваш пристрій відтворення (та/або ПЗ) підтримує H.265 (HEVC)

Аудіо # 1:
мова: українська
переклад: двоголосий закадровий | "Студія Омікрон"
кодек: AC-3 2.0
бітрейт: 192 кб/с

Аудіо # 2:
мова: англійська
переклад: оригінал
кодек: AC-3 2.0
бітрейт: 192 кб/с

Субтитри # 1:
мова: англійська (Full),
тип: програмні (м'які)
формат: *.srt


Info
Код:
General
Unique ID                                : 157086529485062574637622140291380356806 (0x762DC3DD8FD34DB24B09E027F0C326C6)
Complete name                            : G:\Video\Mult\How the Grinch Stole Christmas! (1966) 1080p H.265 [UKR_ENG].
Format                                   :
Format version                           : Version 4 / Version 2
File size                                : 1.06 GiB
Duration                                 : 25 min 45 s
Overall bit rate                         : 5 887 kb/s
Movie name                               : How the Grinch Stole Christmas! (1966)
Encoded date                             : UTC 2019-01-07 10:37:08
Writing application                      : v20.0.0 ('I Am The Sun') 32-bit
Writing library                          : libebml v1.3.5 + v1.4.8
Cover                                    : Yes
Attachments                              : Cover.jpg

Video
ID                                       : 1
Format                                   : HEVC
Format/Info                              : High Efficiency Video Coding
Format profile                           : Main [email protected]@Main
Codec ID                                 : V_MPEGH/ISO/HEVC
Duration                                 : 25 min 45 s
Bit rate                                 : 5 499 kb/s
Width                                    : 1 480 pixels
Height                                   : 1 080 pixels
Display aspect ratio                     : 1.370
Frame rate mode                          : Constant
Frame rate                               : 23.976 (24000/1001) FPS
Color space                              : YUV
Chroma subsampling                       : 4:2:0
Bit depth                                : 10 bits
Bits/(Pixel*Frame)                       : 0.143
Stream size                              : 1 013 MiB (93%)
Title                                    : How the Grinch Stole Christmas! (1966)
Writing library                          : x265 2.9+2-7e978ed93d60:[Windows][MSVC 1915][64 bit] 10bit
Encoding settings                        : cpuid=1111039 / frame-threads=5 / numa-pools=32,0 / wpp / no-pmode / no-pme / no-psnr / no-ssim / log-level=2 / input-csp=1 / input-res=1480x1080 / interlace=0 / total-frames=37043 / level-idc=0 / high-tier=1 / uhd-bd=0 / ref=5 / no-allow-non-conformance / no-repeat-headers / annexb / no-aud / no-hrd / info / hash=0 / no-temporal-layers / open-gop / min-keyint=23 / keyint=250 / gop-lookahead=0 / bframes=8 / b-adapt=2 / b-pyramid / bframe-bias=0 / rc-lookahead=30 / lookahead-slices=0 / scenecut=40 / radl=0 / no-intra-refresh / ctu=64 / min-cu-size=8 / no-rect / no-amp / max-tu-size=32 / tu-inter-depth=1 / tu-intra-depth=1 / limit-tu=0 / rdoq-level=2 / dynamic-rd=0.00 / no-ssim-rd / signhide / no-tskip / nr-intra=0 / nr-inter=0 / no-constrained-intra / no-strong-intra-smoothing / max-merge=3 / limit-refs=3 / limit-modes / me=3 / subme=5 / merange=57 / temporal-mvp / weightp / weightb / no-analyze-src-pics / deblock=0:0 / sao / no-sao-non-deblock / rd=4 / no-early-skip / rskip / no-fast-intra / no-tskip-fast / no-cu-lossless / no-b-intra / no-splitrd-skip / rdpenalty=0 / psy-rd=2.00 / psy-rdoq=1.00 / no-rd-refine / no-lossless / cbqpoffs=0 / crqpoffs=0 / rc=abr / bitrate=5500 / qcomp=0.60 / qpstep=4 / stats-write=0 / stats-read=2 / cplxblur=20.0 / qblur=0.5 / ipratio=1.40 / pbratio=1.30 / aq-mode=3 / aq-strength=1.00 / cutree / zone-count=0 / no-strict-cbr / qg-size=32 / no-rc-grain / qpmax=69 / qpmin=0 / no-const-vbv / sar=0 / overscan=0 / videoformat=5 / range=0 / colorprim=2 / transfer=2 / colormatrix=2 / chromaloc=0 / display-window=0 / max-cll=0,0 / min-luma=0 / max-luma=1023 / log2-max-poc-lsb=8 / vui-timing-info / vui-hrd-info / slices=1 / no-opt-qp-pps / no-opt-ref-list-length-pps / no-multi-pass-opt-rps / scenecut-bias=0.05 / no-opt-cu-delta-qp / aq-motion / no-hdr / no-hdr-opt / no-dhdr10-opt / no-idr-recovery-sei / analysis-reuse-level=5 / scale-factor=0 / refine-intra=0 / refine-inter=0 / refine-mv=0 / no-limit-sao / ctu-info=0 / no-lowpass-dct / refine-mv-type=0 / copy-pic=1 / max-ausize-factor=1.0 / no-dynamic-refine / no-single-sei
Default                                  : Yes
Forced                                   : No

Audio #1
ID                                       : 2
Format                                   : AC-3
Format/Info                              : Audio Coding 3
Codec ID                                 : A_AC3
Duration                                 : 25 min 45 s
Bit rate mode                            : Constant
Bit rate                                 : 192 kb/s
Channel(s)                               : 2 channels
Channel positions                        : Front: L R
Sampling rate                            : 48.0 kHz
Frame rate                               : 31.250 FPS (1536 SPF)
Bit depth                                : 16 bits
Compression mode                         : Lossy
Stream size                              : 35.4 MiB (3%)
Title                                    : ДЗ - Omikron
Language                                 : Ukrainian
Service kind                             : Complete Main
Default                                  : Yes
Forced                                   : Yes

Audio #2
ID                                       : 3
Format                                   : AC-3
Format/Info                              : Audio Coding 3
Codec ID                                 : A_AC3
Duration                                 : 25 min 45 s
Bit rate mode                            : Constant
Bit rate                                 : 192 kb/s
Channel(s)                               : 2 channels
Channel positions                        : Front: L R
Sampling rate                            : 48.0 kHz
Frame rate                               : 31.250 FPS (1536 SPF)
Bit depth                                : 16 bits
Compression mode                         : Lossy
Stream size                              : 35.4 MiB (3%)
Title                                    : Original
Language                                 : English
Service kind                             : Complete Main
Default                                  : No
Forced                                   : No

Text
ID                                       : 4
Format                                   : UTF-8
Codec ID                                 : S_TEXT/UTF8
Codec ID/Info                            : UTF-8 Plain Text
Duration                                 : 22 min 39 s
Bit rate                                 : 50 b/s
Count of elements                        : 187
Stream size                              : 8.42 KiB (0%)
Title                                    : Full
Language                                 : English
Default                                  : No
Forced                                   : No

Menu
00:00:00.000                             : en:Chapter 01
00:00:48.465                             : en:Chapter 02
00:01:27.170                             : en:Chapter 03
00:02:03.123                             : en:Chapter 04
00:03:19.282                             : en:Chapter 05
00:05:14.689                             : en:Chapter 06
00:05:59.525                             : en:Chapter 07
00:07:10.471                             : en:Chapter 08
00:08:14.035                             : en:Chapter 09
00:09:26.399                             : en:Chapter 10
00:10:43.017                             : en:Chapter 11
00:11:59.468                             : en:Chapter 12
00:14:39.920                             : en:Chapter 13
00:18:49.878                             : en:Chapter 14
00:19:55.194                             : en:Chapter 15
00:21:17.526                             : en:Chapter 16
00:25:12.928                             : en:Chapter 17
Світлини




Джерело:
Особиста оцінка: 0 - не дивився


>>> Усі мої релізи <<<



Авторський реліз (завантажувати можна без реєстрації)
 Трекер:    Зареєстрований   

Завантажити / скачати мультфільм українською



відео для новачків



 Зареєстрований:   2019-01-07 12:46
 Розмір:   1.06 GB 
 Оцінка мультфільму:   9.3/10 (Голосів: 3)
   
Ваш часовий пояс: GMT + 2 Години

Нова тема   Відповісти