Ліза та Блакитна Пташка / Liz to Aoi Tori (2018) 1080p H.265 Jap | sub Ukr

Нові коментарі

Нова тема   Відповісти
Автор Повідомлення
Mitsuruki 
VIP


З нами з: 27.09.17
Востаннє: 23.07.19
Повідомлень: 442

2019-01-07 02:08  
Ліза та Блакитна Пташка / Liz to Aoi Tori (2018) 1080p H.265 Jap | sub Ukr

Ліза та Блакитна Пташка / Liz to Aoi Tori (2018) 1080p H.265 Jap | sub Ukr
Альтернативні обкладинки

Жанр: Буденність, музичний, сімейний
Країна: Японія



Кінокомпанія: Kyoto Animation
Режисер: Наоко Ямада
Сюжет:
Повністю самостійний спін-оф до серіалу Hibike! Euphonium про двох випускниць школи Кітауджі, які намагаються знайти свою роль у дорослому світі, до якого вони потраплять вже скоро. Уся дія фільму відбувається в школі, та у світі з книги, по якій їх шкільний оркестр готується робити виступ.
Вирішення можливих проблем з відтворенням:
Завантажити останній набір кодеків та плеер MPC-HC з сайту K-Lite
Тривалість: 1 година 30 хвилин.
Якість: 1080р

Відео:
кодек: H.265 (HEVC)
розмір кадру: 1920 х 1036
бітрейт: 8240 кб/с

Увага! Перед завантаженням переконайтесь, що ваш пристрій відтворення (та/або ПЗ) підтримує H.265 (HEVC)

Аудіо:
мова: японська
переклад: оригінал
кодек: 2.0
бітрейт: 1297 кб/с

Субтитри:
мова: українська
тип: програмні (м'які)
формат: *.
Info
General
Unique ID : 39960988818419218462804064612575498570 (0x1E1034DD0154B2E021044FC3C6BE514A)
Complete name : D:\Video\Liz to Aoi Tori [1920x1036] (Mitsuruki).
Format :
Format version : Version 4 / Version 2
File size : 6.01 GiB
Duration : 1 h 30 min
Overall bit rate mode : Variable
Overall bit rate : 9 542 kb/s
Encoded date : UTC 2019-01-06 22:22:46
Writing application : v26.0.0 ('In The Game') 64-bit
Writing library : libebml v1.3.6 + v1.4.9
Attachments : ACD75__0.TTF / arial_0.ttf / ariblk_0.ttf / Avalon Medium_0.ttf / Avatar_0.ttf / bahnschrift_0.ttf / BODON2_0.TTF / OpenSans-SemiboldItalic_0.ttf

Video
ID : 1
Format : HEVC
Format/Info : High Efficiency Video Coding
Format profile : Main [email protected]@Main
Codec ID : V_MPEGH/ISO/HEVC
Duration : 1 h 30 min
Bit rate : 8 240 kb/s
Width : 1 920 pixels
Height : 1 036 pixels
Display aspect ratio : 1.85:1
Frame rate mode : Constant
Frame rate : 23.976 (24000/1001) FPS
Color space : YUV
Chroma subsampling : 4:2:0
Bit depth : 10 bits
Bits/(Pixel*Frame) : 0.173
Stream size : 5.19 GiB (86%)
Title : by Jensen
Writing library : x265 2.9:[DJATOM's Mod][Windows][MSVC 1916][64 bit] 10bit
Encoding settings : cpuid=1176575 / frame-threads=16 / numa-pools=16,16 / wpp / no-pmode / no-pme / no-psnr / no-ssim / log-level=2 / csv / csv-log-level=0 / input-csp=1 / input-res=1920x1036 / interlace=0 / total-frames=129624 / level-idc=0 / high-tier=1 / uhd-bd=0 / ref=4 / no-allow-non-conformance / no-repeat-headers / annexb / no-aud / no-hrd / info / hash=0 / no-temporal-layers / open-gop / min-keyint=23 / keyint=240 / gop-lookahead=0 / bframes=9 / b-adapt=2 / b-pyramid / bframe-bias=0 / rc-lookahead=20 / lookahead-slices=6 / scenecut=40 / radl=0 / no-intra-refresh / ctu=64 / min-cu-size=8 / no-rect / no-amp / max-tu-size=32 / tu-inter-depth=2 / tu-intra-depth=2 / limit-tu=0 / rdoq-level=2 / dynamic-rd=0.00 / no-ssim-rd / signhide / no-tskip / nr-intra=0 / nr-inter=0 / no-constrained-intra / strong-intra-smoothing / max-merge=2 / limit-refs=3 / limit-modes / me=2 / subme=5 / merange=48 / temporal-mvp / weightp / weightb / no-analyze-src-pics / deblock=1:-1 / no-sao / no-sao-non-deblock / rd=4 / no-early-skip / no-rskip / no-fast-intra / no-tskip-fast / no-cu-lossless / no-b-intra / no-splitrd-skip / rdpenalty=0 / psy-rd=2.00 / psy-rdoq=2.00 / no-rd-refine / no-lossless / cbqpoffs=-2 / crqpoffs=-2 / rc=crf / crf=15.5 / qcomp=0.72 / qpstep=4 / stats-write=0 / stats-read=0 / ipratio=1.40 / pbratio=1.30 / aq-mode=3 / aq-strength=0.85 / no-cutree / zone-count=0 / no-strict-cbr / qg-size=32 / no-rc-grain / qpmax=69 / qpmin=0 / no-const-vbv / sar=1 / overscan=0 / videoformat=5 / range=0 / colorprim=1 / transfer=1 / colormatrix=1 / chromaloc=0 / display-window=0 / max-cll=0,0 / min-luma=0 / max-luma=1023 / log2-max-poc-lsb=8 / vui-timing-info / vui-hrd-info / slices=1 / no-opt-qp-pps / no-opt-ref-list-length-pps / no-multi-pass-opt-rps / scenecut-bias=0.05 / no-opt-cu-delta-qp / aq-motion / no-hdr / no-hdr-opt / no-dhdr10-opt / no-idr-recovery-sei / analysis-reuse-level=5 / scale-factor=0 / refine-intra=0 / refine-inter=0 / refine-mv=0 / no-limit-sao / ctu-info=0 / no-lowpass-dct / refine-mv-type=0 / copy-pic=1 / max-ausize-factor=1.0 / no-dynamic-refine / no-single-sei
Language : Japanese
Default : Yes
Forced : No
Color range : Limited
Color primaries : BT.709
Transfer characteristics : BT.709
Matrix coefficients : BT.709

Audio
ID : 2
Format :
Format/Info : Free Lossless Audio Codec
Codec ID : A_FLAC
Duration : 1 h 30 min
Bit rate mode : Variable
Bit rate : 1 297 kb/s
Channel(s) : 2 channels
Channel layout : L R
Sampling rate : 48.0 kHz
Frame rate : 11.719 FPS (4096 SPF)
Bit depth : 24 bits
Compression mode : Lossless
Stream size : 836 MiB (14%)
Writing library : libFLAC 1.3.1 (UTC 2014-11-25)
Language : Japanese
Default : Yes
Forced : No

Text
ID : 3
Format :
Codec ID : S_TEXT/
Codec ID/Info : Advanced Sub Station Alpha
Duration : 1 h 24 min
Bit rate : 105 b/s
Count of elements : 1071
Compression mode : Lossless
Stream size : 65.7 KiB (0%)
Title : Mitsuruki
Language : Ukrainian
Default : Yes
Forced : Yes

Menu
00:00:00.000 : uk:Вступ
00:07:38.083 : uk:Самотня дівчина
00:24:28.634 : uk:У клітці
00:36:23.640 : uk:Веремій
00:49:53.824 : uk:Ліза та Блакитна Пташка
01:01:11.418 : uk:Любов, що здатна надихнути
01:12:03.653 : uk:Щасливе морозивко
01:24:57.092 : uk:Титри
Скріншоти




Джерело: Beatrice-Raws + 35mm + Mitsuruki
Особиста оцінка:

Якщо коротко — це робота Ямади. Вона себе не стримувала.
Якщо трошки довше — це надзвичайно якісне аніме, про великі зміни у житті двох маленьких людей. В ньому усе на висоті, а вам лишається лише насолоджуватися тим, що вам показують… ну або виключити і не гаяти час. Рівень мое в цьому фільмі просто зашкалює, це ж робота Ямади, що ж ви хотіли? Якщо вам від них верне — то навіть не намагайтеся, лише собі враження зіпсуєте.
Моя особиста оцінка — 9 балів за дуже хороший тайтл.

Завантажити 720p версію можна на нашому ТГ-Каналі


Золотий реліз (завантажене не впливає на рейтинг)
 Трекер:    Зареєстрований   

Завантажити / скачати аніме українською



відео для новачків



 Зареєстрований:   2019-01-07 02:08
 Розмір:   6.01 GB 
 Оцінка аніме:   9.6/10 (Голосів: 5)
   
11FrYkT 
Модератор відео


З нами з: 20.02.11
Востаннє: 22.07.19
Повідомлень: 6055

2019-01-07 11:49  
Mitsuruki написано:
Format : HEVC

тут H.265, додайте в заголовок і в самій темі, про можливість не відворення відео і тд

Також в МІ відсутні дані про доріжку і саби

Mitsuruki 
VIP


З нами з: 27.09.17
Востаннє: 23.07.19
Повідомлень: 442

2019-01-07 11:57  
11FrYkT
А що саме і куди додавати?

Додано через 5 хвилин 24 секунди:

11FrYkT
Навіть не помітив, що МедіаІнфо неповне.
Якщо я все правильно зрозумів, то все вже виправлено.

11FrYkT 
Модератор відео


З нами з: 20.02.11
Востаннє: 22.07.19
Повідомлень: 6055

2019-01-07 12:10  
Mitsuruki написано:

11FrYkT
А що саме і куди додавати?

Додано через 5 хвилин 24 секунди:

11FrYkT
Навіть не помітив, що МедіаІнфо неповне.
Якщо я все правильно зрозумів, то все вже виправлено.

я Вам поправив

Mitsuruki 
VIP


З нами з: 27.09.17
Востаннє: 23.07.19
Повідомлень: 442

2019-01-07 12:12  
11FrYkT
Дякую.

kinoroman 
Свій


З нами з: 04.12.16
Востаннє: 22.07.19
Повідомлень: 62

2019-02-24 18:48  
Чудова історія! Дуже поетично. І, звичайно, прекрасна музика. 10/10.
Дякую всім причетним до релізу.

エンケラドス 
Свій


З нами з: 21.07.15
Востаннє: 21.07.19
Повідомлень: 70

2019-06-06 10:54  
Дуже гарний твір. Обожнюю попередні два сезони про еуфоніум, і з нетерпінням чекатиму на переклад продовження 2019го року. Дуже вдячний за переклад.
Ваш часовий пояс: GMT + 2 Години

Нова тема   Відповісти