Наруто: Ураганні хроніки / Naruto Shippuden (243-257, 261-265 з 500) (2012-2013) 720p Jap | sub Ukr

Нові коментарі

Нова тема   Відповісти
Автор Повідомлення
Mitsuruki 
VIP


З нами з: 27.09.17
Востаннє: 22.01.19
Повідомлень: 270

2019-01-06 21:21  
Наруто: Ураганні хроніки / Naruto Shippuden (243-257, 261-265 з 500) (2012-2013) 720p Jap | sub Ukr

Наруто: Ураганні хроніки / Naruto Shippuden (243-257, 261-265 з 500) (2012-2013) 720p Jap | sub Ukr


Жанр: пригодницький, комедія, бойове мистецтво, шьонен
Країна: Японія



Кінокомпанія: Studio Pierrot
Режисер: Дате Хаято
Актори: Nakamura Chie (Харуно Сакура), Sugiyama Noriaki (Учіха Саске), Takeuchi Junko (Узумакі Наруто), Kawada Shinji (Абураме Шино), Itou Kentarou (Акімічі Чоджу), Tani Ikuko (Чійо)

Сюжет:
У світі Наруто непомітно промайнули два роки. Колишні новачки поповнили ряди досвідчених шінобі в ранзі чюнінів і джонінів. Головні герої не сиділи склавши руки - кожен став учнем одного з легендарних санінів - трьох великих ніндзя Конохи. Хлопець у помаранчевому продовжив навчання у мудрого, але ексцентричного Джірайі, поступово сходячи на новий щабель бойової майстерності. Сакура висунулася в помічниці та довіреної особи цілительки Тсунаде - нового вождя Селища Листя. Ну а Саске, чия гординя призвела до вигнання з Конохи, приєднався до тимчасового союзу зі зловісним Орочімару, причому кожен вважає, що лише використовує іншого до певного часу.
Короткий перепочинок закінчився, і події в черговий раз розгортаються з ураганною швидкістю.
У Коносі знову проростає насіння старих чвар, посіяні першими хокаге.
Таємничий лідер Акацукі привів у дію план набуття світового панування.
Неспокійно у Селищі Піску і сусідніх країнах, скрізь спливають старі таємниці, і стає зрозумілим, що таки доведеться за все розплачуватися.
Довгоочікуване продовження манги вдихнуло нове життя в серіал і нову надію в серця незліченних фанатів!


Тривалість: 00:23:09 (Цілком 20)
Перелік серій
243. Острів Ахой! І це райський острів?
244. Кіллер Бі і Мотой.
245. Наступне випробування! Наруто проти Дев'ятихвостого!
246. Багряна Іскра
247. Ціль — Дев'ятихвостий
248. Останній хід Четвертого Хокаґе.
249. Дякую тобі.
250. Битва у раю! Дивний звір проти монстра.
251. Людина, яку звали Кісаме.
252. Небесний Вісник Смерті.
253. Міст миру.
254. Надсекретне завдання рангу S.
255. Повернення митця.
256. Загальний збір! Союзні Сили Шінобі!
257. Зустріч.
261. Для мого друга.
262. Війна починається.
263. Сай та Шін.
264. Секрет техніки Реанімації.
265. Повернення Давніх Рахунків.
Якість:
Відео:
кодек:
розмір кадру: 1280х720
бітрейт: 1 776 кб/с

Аудіо:
мова: японська
переклад: оригінал
кодек: AАC 2.0
бітрейт: 128 кб/с

Субтитри:
мова: українська
тип: програмні (м'які)
формат: *.
Info
General
Unique ID : 205879403186162748977678325416610167658 (0x9AE2EE45D21DDC3B3D2E40B0DD4EFB6A)
Complete name : E:\Святилище\[Mitsuruki] Naruto Shippuden [720p]\[Mitsuruki] Naruto Shippuden - 243 [720p].
Format :
Format version : Version 4
File size : 315 MiB
Duration : 23 min 9 s
Overall bit rate : 1 903 kb/s
Encoded date : UTC 2019-01-06 18:26:52
Writing application : v30.1.0 ('Forever And More') 64-bit
Writing library : libebml v1.3.6 + v1.4.9
Attachments : OpenSans-Semibold.ttf

Video
ID : 1
Format : AVC
Format/Info : Advanced Video Codec
Format profile : [email protected]
Format settings : CABAC / 6 Ref Frames
Format settings, CABAC : Yes
Format settings, RefFrames : 6 frames
Codec ID : V_MPEG4/ISO/AVC
Duration : 23 min 9 s
Bit rate : 1 776 kb/s
Width : 1 280 pixels
Height : 720 pixels
Display aspect ratio : 16:9
Frame rate mode : Constant
Frame rate : 23.976 (23976/1000) FPS
Color space : YUV
Chroma subsampling : 4:2:0
Bit depth : 8 bits
Scan type : Progressive
Bits/(Pixel*Frame) : 0.080
Stream size : 294 MiB (93%)
Writing library : core 120 r2120 0c7dab9
Encoding settings : cabac=1 / ref=6 / deblock=1:1:1 / analyse=0x3:0x113 / me=umh / subme=8 / psy=1 / psy_rd=0.40:0.00 / mixed_ref=1 / me_range=16 / chroma_me=1 / trellis=1 / 8x8dct=1 / cqm=0 / deadzone=21,11 / fast_pskip=1 / chroma_qp_offset=-2 / threads=4 / sliced_threads=0 / nr=0 / decimate=1 / interlaced=0 / bluray_compat=0 / constrained_intra=0 / bframes=3 / b_pyramid=2 / b_adapt=2 / b_bias=0 / direct=3 / weightb=1 / open_gop=0 / weightp=2 / keyint=250 / keyint_min=23 / scenecut=40 / intra_refresh=0 / rc_lookahead=50 / rc=2pass / mbtree=1 / bitrate=1776 / ratetol=1.0 / qcomp=0.60 / qpmin=0 / qpmax=69 / qpstep=4 / cplxblur=20.0 / qblur=0.5 / vbv_maxrate=3552 / vbv_bufsize=8880 / nal_hrd=none / ip_ratio=1.40 / aq=1:0.60
Default : Yes
Forced : No

Audio
ID : 2
Format : LC
Format/Info : Advanced Audio Codec Low Complexity
Codec ID : A_AAC-2
Duration : 23 min 9 s
Bit rate : 128 kb/s
Channel(s) : 2 channels
Channel layout : L R
Sampling rate : 44.1 kHz
Frame rate : 43.066 FPS (1024 SPF)
Compression mode : Lossy
Stream size : 21.2 MiB (7%)
Language : Japanese
Default : Yes
Forced : No

Text
ID : 3
Format :
Codec ID : S_TEXT/
Codec ID/Info : Advanced Sub Station Alpha
Duration : 23 min 1 s
Bit rate : 140 b/s
Count of elements : 328
Compression mode : Lossless
Stream size : 23.7 KiB (0%)
Title : Українська (Mitsuruki)
Language : Ukrainian
Default : Yes
Forced : No
Скріншоти




Переклад: AniSky, Rainy984, Ovdiyko, Джойс, Pulsar_sp, Milisento, Stef, Neviglas, Сандра, MarkoFrog, TopchikKO, NXXYGEN, (Mitsuruki)
Українізований постер: AniSky

Особиста оцінка: 10 - бо Наруто — це круто!


Фріліч (завантажене не впливає на рейтинг)
 Трекер:    Зареєстрований   

Завантажити / скачати аніме українською



відео для новачків



 Зареєстрований:   2019-01-21 11:36
 Розмір:   6.16 GB 
 Оцінка аніме:   10/10 (Голосів: 2)
   
11FrYkT 
Модератор відео


З нами з: 20.02.11
Востаннє: 22.01.19
Повідомлень: 5428

2019-01-06 22:04  
Mitsuruki написано:
Наруто: Ураганні хроніки / Naruto Shippuden (2007) (243-252 з 500) Jap | sub Ukr

Якщо брати рік то це перший сезон, тоді чому серії 243-252???
Пропишіть сезон, правильний рік, додайте перелік серій і їх назви
Mitsuruki написано:
кодек: ACC

кодек не вірний і не вказано кількість каналів

Мінімум 1 скрін повинен бути з сабами

Mitsuruki 
VIP


З нами з: 27.09.17
Востаннє: 22.01.19
Повідомлень: 270

2019-01-13 11:43  
ДОДАНО 253-257 СЕРІЇ!
Ваш часовий пояс: GMT + 2 Години

Нова тема   Відповісти