Том і Джері: Форсаж / Tom and Jerry: The Fast and the Furry (2005) AVC

Нові коментарі

Нова тема   Відповісти
Автор Повідомлення
sergiyko.5 
VIP


З нами з: 25.02.16
Востаннє: 26.10.20
Повідомлень: 3618

2019-01-06 18:21  


Том і Джері: Форсаж / Tom and Jerry: The Fast and the Furry (2005) AVC

Том і Джері: Форсаж / Tom and Jerry: The Fast and the Furry (2005) AVC

Жанр: пригоди, комедія
Країна: США
Режисер: Білл Копп

Сюжет:
Том і Джеррі беруть участь в гонках в надії отримати суперприз – шикарний особняк! Але навіть під час перегонів не перестають ганятися один за одним, влаштовуючи пастки.




Тривалість: 01:14:36
Якість:

Відео: кодек: розмір кадру: 1024 х 576 бітрейт: 1400 кб/с
Аудіо: мова: українська переклад: багатоголосий закадровий кодек: 2.0 бітрейт: 192 кб/с
Озвучення:
Про файл:
General
Unique ID : 257090215745472420152111096645784675032 (0xC169C6451021EABEF7FFCCCBED9BA2D8)
Complete name : G:\Torrents2\MULT\Tom and Jerry The Fast and the Furry.2005..
Format :
Format version : Version 4
File size : 835 MiB
Duration : 1 h 14 min
Overall bit rate : 1 566 kb/s
Movie name : Tom and Jerry The Fast and the Furry by sergiyko
Encoded date : UTC 2019-01-06 16:18:41
Writing application : v30.0.0 ('Interstellar') 64-bit
Writing library : libebml v1.3.6 + v1.4.9
Cover : Yes
Attachments : cover.jpg

Video
ID : 1
Format : AVC
Format/Info : Advanced Video Codec
Format profile : [email protected]
Format settings : CABAC / 7 Ref Frames
Format settings, CABAC : Yes
Format settings, ReFrames : 7 frames
Codec ID : V_MPEG4/ISO/AVC
Duration : 1 h 14 min
Bit rate : 1 371 kb/s
Width : 1 024 pixels
Height : 576 pixels
Display aspect ratio : 16:9
Frame rate mode : Constant
Frame rate : 23.976 (24000/1001) FPS
Color space : YUV
Chroma subsampling : 4:2:0
Bit depth : 8 bits
Scan type : Progressive
Bits/(Pixel*Frame) : 0.097
Stream size : 732 MiB (88%)
Title : Tom and Jerry The Fast and the Furry 2005
Writing library : core 152 r2851 ba24899
Encoding settings : cabac=1 / ref=7 / deblock=1:-1:0 / analyse=0x3:0x133 / me=umh / subme=9 / psy=1 / psy_rd=0.40:0.00 / mixed_ref=1 / me_range=24 / chroma_me=1 / trellis=2 / 8x8dct=1 / cqm=0 / deadzone=21,11 / fast_pskip=1 / chroma_qp_offset=-2 / threads=18 / lookahead_threads=4 / sliced_threads=0 / nr=0 / decimate=1 / interlaced=0 / bluray_compat=0 / constrained_intra=0 / bframes=10 / b_pyramid=2 / b_adapt=2 / b_bias=0 / direct=1 / weightb=1 / open_gop=0 / weightp=2 / keyint=250 / keyint_min=23 / scenecut=40 / intra_refresh=0 / rc_lookahead=60 / rc=crf / mbtree=1 / crf=21.0 / qcomp=0.60 / qpmin=0 / qpmax=69 / qpstep=4 / ip_ratio=1.40 / aq=1:0.60
Language : English
Default : Yes
Forced : No

Audio
ID : 2
Format : AC-3
Format/Info : Audio Coding 3
Commercial name : Dolby Digital
Codec ID : A_AC3
Duration : 1 h 14 min
Bit rate mode : Constant
Bit rate : 192 kb/s
Channel(s) : 2 channels
Channel layout : L R
Sampling rate : 48.0 kHz
Frame rate : 31.250 FPS (1536 SPF)
Bit depth : 16 bits
Compression mode : Lossy
Stream size : 102 MiB (12%)
Title : MOV | Новий канал
Language : Ukrainian
Service kind : Complete Main
Default : Yes
Forced : No

Menu
00:00:00.000 : :01
00:01:19.077 : :02
00:06:09.994 : :03
00:14:40.546 : :04
00:22:03.320 : :05
00:26:02.351 : :06
00:30:24.864 : :07
00:38:47.241 : :08
00:49:26.129 : :09
00:52:49.040 : :10
01:00:01.597 : :11
01:06:15.137 : :12
01:11:34.289 : :13
Скріншоти:



Запис/зведення/ріп: sergiyko


 Трекер:    Зареєстрований   

Завантажити / скачати мультфільм українською



відео для новачків



 Зареєстрований:   2019-01-06 18:21
 Розмір:   835 MB 
 Оцінка мультфільму:   9.9/10 (Голосів: 14)
   
Djohnnikey 
VIP


З нами з: 01.10.15
Востаннє: 25.10.20
Повідомлень: 420

2019-07-06 15:05  
Напевно один з кращих мультфільмів про Тома та Джері, ну й знято явно більш якісно, ніж фільм "Форсаж", особливо це стосується "Антарктичного дріфту Тома".
Нудьгувати під час перегляду ви будете навряд чи. Єдине питання: чому господиня Тома не стара негритянка, а якась європейка?..
9 з 10.

leicheman 
Відео Гуртом - фільмокрай
Відео Гуртом - фільмокрай


З нами з: 03.07.14
Востаннє: 26.10.20
Повідомлень: 5544

2019-07-06 15:11  
Djohnnikey написано:

Тома не стара негритянка, а якась європейка?..
9 з 10.


Не вписується образ у сучасніть.

Ваш часовий пояс: GMT + 2 Години

Нова тема   Відповісти