Страшилки 2: Привиди Хелловіна / Goosebumps 2: Haunted Halloween (2018) Remux 1080p Ukr/Eng | Sub Ukr/Eng

Нові коментарі

Нова тема   Відповісти
Автор Повідомлення
staf777 
Попереджень: 1
Попереджень: 1 


З нами з: 16.11.16
Востаннє: 21.02.19
Повідомлень: 2152

2019-01-06 16:58  
Страшилки 2: Привиди Хелловіна / Goosebumps 2: Haunted Halloween (2018) Remux 1080p Ukr/Eng | Sub Ukr/Eng



Жанр: жахи, комедія, пригодницький, сімейний, фентезі
Країна: США



Кінокомпанія: Columbia Pictures Corporation,Original Film,Scholastic Entertainment
Режисер: Ері Сандел
Актори: Венді МакЛендон-Кові, Медісон Ісман, Джеремі Рей Тейлор, Кен Жонг, Кріс Парнелл, Шарі Хедлі

Сюжет:
Лише напередодні Геловіну трапляються… комедійні кошмари. Зі сторінок відомого бестселера сходить ціла армія страшидл та монстрів, і цього разу чудовиська захоплюють парк розваг «Хорорленд». Звичайним підліткам не залишається нічого, окрім як стиснути свою відвагу в кулак і звільнити місто від нечисті різного калібру!


Тривалість: 01:29:48
Якість: Remux 1080p
Відео:
кодек:
розмір кадру: 1920x1080
бітрейт: 24,9 Mб/с

Аудіо # 1:
мова: українська
переклад: професійний дубльований
кодек: 2.0
бітрейт: 160 кб/с

Аудіо # 2:
мова: англійська
переклад: оригінал
кодек: -HD MA 5.1
бітрейт: 1971 кб/с

Субтитри # 1:
мова: українська
тип: програмні (м'які)
формат: *.srt

Субтитри # 2:
мова: англійська
тип: програмні (м'які)
формат: *.srt
Info
Код:
General
Unique ID                   : 151540553670608212088600813353852049036 (0x7201A6258A66AAD6537C587F9B89968C)
Complete name               : P:\HD українською » Фільми в HD\Фентезі\Goosebumps 2 Haunted Halloween (2018) Remux 1080p [UKR_ENG] [Hurtom].
Format                      :
Format version              : Version 4 / Version 2
File size                   : 17.0 GiB
Duration                    : 1 h 29 min
Overall bit rate mode       : Variable
Overall bit rate            : 27.0 Mb/s
Movie name                  : Goosebumps 2: Haunted Halloween (2018) Remux 1080p [UKR_ENG] [Hurtom]
Encoded date                : UTC 2019-01-06 18:23:31
Writing application         : v24.0.0 ('Beyond The Pale') 64-bit
Writing library             : libebml v1.3.6 + v1.4.9
Cover                       : Yes
Attachments                 : cover.jpg

Video
ID                          : 1
Format                      : AVC
Format/Info                 : Advanced Video Codec
Format profile              : [email protected]
Format settings             : CABAC / 2 Ref Frames
Format settings, CABAC      : Yes
Format settings, ReFrames   : 2 frames
Format settings, GOP        : M=1, N=10
Codec ID                    : V_MPEG4/ISO/AVC
Duration                    : 1 h 29 min
Bit rate mode               : Variable
Bit rate                    : 24.9 Mb/s
Width                       : 1 920 pixels
Height                      : 1 080 pixels
Display aspect ratio        : 16:9
Frame rate mode             : Constant
Frame rate                  : 23.976 (24000/1001) FPS
Color space                 : YUV
Chroma subsampling          : 4:2:0
Bit depth                   : 8 bits
Scan type                   : Progressive
Bits/(Pixel*Frame)          : 0.501
Stream size                 : 15.6 GiB (92%)
Language                    : English
Default                     : Yes
Forced                      : No

Audio #1
ID                          : 2
Format                      : AC-3
Format/Info                 : Audio Coding 3
Codec ID                    : A_AC3
Duration                    : 1 h 29 min
Bit rate mode               : Constant
Bit rate                    : 160 kb/s
Channel(s)                  : 2 channels
Channel positions           : Front: L R
Sampling rate               : 48.0 kHz
Frame rate                  : 31.250 FPS (1536 SPF)
Bit depth                   : 16 bits
Compression mode            : Lossy
Stream size                 : 103 MiB (1%)
Title                       : iTunes
Language                    : Ukrainian
Service kind                : Complete Main
Default                     : Yes
Forced                      : Yes

Audio #2
ID                          : 3
Format                      :
Format/Info                 : Digital Theater Systems
Format profile              : MA / Core
Codec ID                    : A_DTS
Duration                    : 1 h 29 min
Bit rate mode               : Variable / Constant
Bit rate                    : 1 971 kb/s / 1 509 kb/s
Channel(s)                  : 6 channels
Channel positions           : Front: L C R, Side: L R, LFE
Sampling rate               : 48.0 kHz
Frame rate                  : 93.750 FPS (512 SPF)
Bit depth                   : 16 bits
Compression mode            : Lossless / Lossy
Stream size                 : 1.24 GiB (7%)
Title                       : Original
Language                    : English
Default                     : No
Forced                      : No

Text #1
ID                          : 4
Format                      : UTF-8
Codec ID                    : S_TEXT/UTF8
Codec ID/Info               : UTF-8 Plain Text
Duration                    : 1 h 28 min
Bit rate                    : 78 b/s
Count of elements           : 1125
Stream size                 : 50.7 KiB (0%)
Title                       : Full
Language                    : Ukrainian
Default                     : No
Forced                      : No

Text #2
ID                          : 5
Format                      : UTF-8
Codec ID                    : S_TEXT/UTF8
Codec ID/Info               : UTF-8 Plain Text
Duration                    : 1 h 27 min
Bit rate                    : 59 b/s
Count of elements           : 1277
Stream size                 : 38.0 KiB (0%)
Title                       : Full
Language                    : English
Default                     : No
Forced                      : No

Menu
00:00:00.000                : en:1
00:04:32.439                : en:2
00:11:15.174                : en:3
00:18:42.913                : en:4
00:21:40.632                : en:5
00:27:22.348                : en:6
00:32:36.119                : en:7
00:37:47.430                : en:8
00:45:13.917                : en:9
00:50:10.712                : en:10
00:56:16.702                : en:11
01:00:34.750                : en:12
01:05:27.125                : en:13
01:09:24.110                : en:14
01:14:36.921                : en:15
01:20:28.314                : en:16
Скріншоти



Джерело: & &
Особиста оцінка: 8 - мені сподобалося
Страшилки 2: Привиди Хелловіна / Goosebumps 2: Haunted Halloween (2018) Remux 1080p Ukr/Eng | Sub Ukr/Eng Страшилки 2: Привиди Хелловіна / Goosebumps 2: Haunted Halloween (2018) Remux 1080p Ukr/Eng | Sub Ukr/Eng


Золотий реліз (завантажене не впливає на рейтинг)
 Трекер:    Зареєстрований   

Завантажити / скачати фільм українською



відео для новачків



 Зареєстрований:   2019-01-06 21:13
 Розмір:   16.96 GB 
 Оцінка фільму:   7.8/10 (Голосів: 5)
   
staf777 
Попереджень: 1
Попереджень: 1 


З нами з: 16.11.16
Востаннє: 21.02.19
Повідомлень: 2152

2019-01-06 19:32  
Прикрутив нашу доріжку 192 кб/с - розсінхрон - прийдеться перероблять і залишити доріжку 160 кб/с яка у селезня в ремуксі... 1080p не робив - з переляку залишив 160
11FrYkT 
Модератор відео


З нами з: 20.02.11
Востаннє: 21.02.19
Повідомлень: 5596

2019-01-06 19:34  
staf777 написано:
Прикрутив нашу доріжку 192 кб/с - розсінхрон - прийдеться перероблять і залишити доріжку 160 кб/с яка у селезня в ремуксі... та і 1080 теж та історія

в мене 720 від нього все норм

staf777 
Попереджень: 1
Попереджень: 1 


З нами з: 16.11.16
Востаннє: 21.02.19
Повідомлень: 2152

2019-01-06 22:21  
11FrYkT написано:
в мене 720 від нього все норм

В 1080 теж - вже залишу як є як Ви кажете може блюр буде Happy

Ваш часовий пояс: GMT + 2 Години

Нова тема   Відповісти