Нескінченність / The Endless (2017) 1080p Ukr/Eng | Sub Eng

Нові коментарі

Нова тема   Відповісти
Автор Повідомлення
staf777 
Відео Гуртом - підтримка та поширення
Відео Гуртом - підтримка та поширення


З нами з: 16.11.16
Востаннє: 22.04.19
Повідомлень: 2283

2019-01-06 15:28  
Нескінченність / The Endless (2017) 1080p Ukr/Eng | Sub Eng


«'Бермудський трикутник' потойбічних реальностей»



Жанр: жахи, трилер, фантастика, фентезі
Країна: США



Кінокомпанія: Snowfort Pictures, Pfaff & Pfaff Productions, Love & Death Productions (LDP)
Режисер: Джастін Бенсон, Аарон Мурхед
Актори: Каллі Ернандес, Джастін Бенсон, Аарон Мурхед, Лью Темпл, Джеймс Джордан

Сюжет:
Ще дітьми брати Аарон і Джастін втекли з секти. Тепер, вже дорослими, вони отримують повідомлення від своєї колишньої «сім'ї» з погрозами і вимогою повернутися. Брати починають підозрювати, що щось надприродне, у що вірить культ, існує насправді.


Тривалість: 01:51:24
Якість: 1080р

Відео:
кодек:
розмір кадру: 1920x804
бітрейт: 12.4 Mб/с

Аудіо # 1:
мова: українська
переклад: багатоголосий закадровий
кодек: 2.0 (стерео)
бітрейт: 192 кб/с

Аудіо # 2:
мова: англійська
переклад: оригінал
кодек: 5.1
бітрейт: 640 кб/с

Субтитри:
мова: англійська
тип: програмні (м'які)
формат: *.srt
Info
Код:

General
Unique ID                   : 218359040233203993467028859268318413428 (0xA4466BE243D0E4F3BE3160B6BDA4C274)
Complete name               : P:\HD українською » Фільми в HD\Фентезі\The Endless (2017) 1080p [UKR_ENG] [Hurtom].
Format                      :
Format version              : Version 4 / Version 2
File size                   : 10.3 GiB
Duration                    : 1 h 51 min
Overall bit rate            : 13.3 Mb/s
Movie name                  :  The Endless (2017) 1080p [UKR_ENG] [Hurtom]
Encoded date                : UTC 2019-01-06 12:24:51
Writing application         : v24.0.0 ('Beyond The Pale') 64-bit
Writing library             : libebml v1.3.6 + v1.4.9
Cover                       : Yes
Attachments                 : cover.jpg

Video
ID                          : 1
Format                      : AVC
Format/Info                 : Advanced Video Codec
Format profile              : [email protected]
Format settings             : CABAC / 5 Ref Frames
Format settings, CABAC      : Yes
Format settings, ReFrames   : 5 frames
Codec ID                    : V_MPEG4/ISO/AVC
Duration                    : 1 h 51 min
Bit rate                    : 12.4 Mb/s
Width                       : 1 920 pixels
Height                      : 804 pixels
Display aspect ratio        : 2.40:1
Frame rate mode             : Constant
Frame rate                  : 24.000 FPS
Color space                 : YUV
Chroma subsampling          : 4:2:0
Bit depth                   : 8 bits
Scan type                   : Progressive
Bits/(Pixel*Frame)          : 0.336
Stream size                 : 9.67 GiB (94%)
Writing library             : core 142 r2431+42 c69a006 tMod [[email protected]:2:0 X86_64]
Encoding settings           : cabac=1 / ref=5 / deblock=1:-3:-3 / analyse=0x3:0x113 / me=umh / subme=10 / psy=1 / fade_compensate=0.00 / psy_rd=1.00:0.05 / mixed_ref=1 / me_range=48 / chroma_me=1 / trellis=2 / 8x8dct=1 / cqm=0 / deadzone=21,11 / fast_pskip=0 / chroma_qp_offset=-2 / threads=48 / lookahead_threads=6 / sliced_threads=0 / nr=0 / decimate=1 / interlaced=0 / bluray_compat=0 / constrained_intra=0 / fgo=0 / bframes=8 / b_pyramid=2 / b_adapt=2 / b_bias=0 / direct=3 / weightb=1 / open_gop=0 / weightp=2 / keyint=250 / keyint_min=24 / scenecut=40 / intra_refresh=0 / rc_lookahead=40 / rc=crf / mbtree=0 / crf=18.1000 / qcomp=0.60 / qpmin=0:0:0 / qpmax=69:69:69 / qpstep=4 / vbv_maxrate=40000 / vbv_bufsize=30000 / crf_max=0.0 / nal_hrd=none / filler=0 / ip_ratio=1.40 / pb_ratio=1.30 / aq=3:0.80 / aq-sensitivity=10.00 / aq-factor=1.00:1.00:1.00 / aq2=0 / aq3=0
Default                     : Yes
Forced                      : No
Color range                 : Limited
Matrix coefficients         : BT.709

Audio #1
ID                          : 2
Format                      : AC-3
Format/Info                 : Audio Coding 3
Codec ID                    : A_AC3
Duration                    : 1 h 51 min
Bit rate mode               : Constant
Bit rate                    : 192 kb/s
Channel(s)                  : 2 channels
Channel positions           : Front: L R
Sampling rate               : 48.0 kHz
Frame rate                  : 31.250 FPS (1536 SPF)
Bit depth                   : 16 bits
Compression mode            : Lossy
Stream size                 : 153 MiB (1%)
Title                       : MVO, 2.0 [stereo] 192 Kbps
Language                    : Ukrainian
Service kind                : Complete Main
Default                     : Yes
Forced                      : Yes

Audio #2
ID                          : 3
Format                      : AC-3
Format/Info                 : Audio Coding 3
Codec ID                    : A_AC3
Duration                    : 1 h 51 min
Bit rate mode               : Constant
Bit rate                    : 640 kb/s
Channel(s)                  : 6 channels
Channel positions           : Front: L C R, Side: L R, LFE
Sampling rate               : 48.0 kHz
Frame rate                  : 31.250 FPS (1536 SPF)
Bit depth                   : 16 bits
Compression mode            : Lossy
Stream size                 : 510 MiB (5%)
Title                       : Original
Language                    : English
Service kind                : Complete Main
Default                     : No
Forced                      : No

Text #1
ID                          : 4
Format                      : UTF-8
Codec ID                    : S_TEXT/UTF8
Codec ID/Info               : UTF-8 Plain Text
Duration                    : 1 h 51 min
Bit rate                    : 49 b/s
Count of elements           : 1321
Stream size                 : 40.4 KiB (0%)
Title                       : Full
Language                    : English
Default                     : No
Forced                      : No

Text #2
ID                          : 5
Format                      : UTF-8
Codec ID                    : S_TEXT/UTF8
Codec ID/Info               : UTF-8 Plain Text
Duration                    : 1 h 51 min
Bit rate                    : 52 b/s
Count of elements           : 1420
Stream size                 : 42.3 KiB (0%)
Title                       : SDH
Language                    : English
Default                     : No
Forced                      : No

Menu
00:00:00.000                : en:00:00:00.000
00:06:27.833                : en:00:06:27.833
00:13:14.875                : en:00:13:14.875
00:20:40.875                : en:00:20:40.875
00:27:18.833                : en:00:27:18.833
00:34:47.500                : en:00:34:47.500
00:41:36.625                : en:00:41:36.625
00:47:47.000                : en:00:47:47.000
00:55:59.083                : en:00:55:59.083
01:02:50.583                : en:01:02:50.583
01:08:07.292                : en:01:08:07.292
01:16:44.250                : en:01:16:44.250
01:24:00.708                : en:01:24:00.708
01:31:21.042                : en:01:31:21.042
01:37:53.917                : en:01:37:53.917
01:47:15.875                : en:01:47:15.875

Скріншоти





Підтримати купівлю інших фільмів можна тут.

Подяка пану AngryBirdsUA за доріжку.

Джерело:
Особиста оцінка: 0 - не дивився


 Трекер:    Зареєстрований   

Завантажити / скачати фільм українською



відео для новачків



 Зареєстрований:   2019-01-06 15:48
 Розмір:   10.32 GB 
 Оцінка фільму:   7.3/10 (Голосів: 15)
   
Інші релізи
behemot86 
Частий відвідувач


З нами з: 04.10.10
Востаннє: 12.04.19
Повідомлень: 29

2019-01-16 14:13  
варто дивитися? качати? напишіть, будь ласка, хоч декілька слів про фільм
ced 
Свій


З нами з: 11.02.17
Востаннє: 23.04.19
Повідомлень: 92

2019-01-16 16:49  
Мені дуже сподобався. Оцінка на IMDB явно занижена, 80 балів на метакритиці правдивіші.
Siegfried 
VIP


З нами з: 01.11.11
Востаннє: 22.04.19
Повідомлень: 251

2019-01-17 12:54  
Якось перемудрили.
Мало пояснень в самому фільмі і розкриття теми паранормального.
Чекав кращого.
Навіть фанатам жанру не стану радити.
Розчарував фільм.

4/10

vovang6 
Поважний учасник


З нами з: 27.08.12
Востаннє: 22.04.19
Повідомлень: 194

2019-02-06 19:03  
Подивився трейлер, зацікавився.
Переглянув фільм, отримав змішані емоції. Ідея цікава, але розкриття її ніяке, нічого не пояснюється. Кінцева думка: 5/10, можна було і не дивитися.

Ваш часовий пояс: GMT + 2 Години

Нова тема   Відповісти