Том і Джері: Форсаж / Tom and Jerry: The Fast and the Furry (2005) 1080p Ukr/Eng | Sub Eng

Нові коментарі

Нова тема   Відповісти
Автор Повідомлення
sergiyko.5 
VIP


З нами з: 25.02.16
Востаннє: 28.02.20
Повідомлень: 2957

2019-01-06 13:58  


Том і Джері: Форсаж / Tom and Jerry: The Fast and the Furry (2005) 1080p Ukr/Eng | Sub Eng

Том і Джері: Форсаж / Tom and Jerry: The Fast and the Furry (2005) 1080p Ukr/Eng | Sub Eng

Жанр: пригоди, комедія
Країна: США
Режисер: Білл Копп

Сюжет:
Том і Джеррі беруть участь в гонках в надії отримати суперприз – шикарний особняк! Але навіть під час перегонів не перестають ганятися один за одним, влаштовуючи пастки.




Тривалість: 01:14:36
Якість:

Відео: кодек: розмір кадру: 1920 х 1080 бітрейт: 5080 кб/с
Аудіо #1: мова: українська переклад: багатоголосий закадровий кодек: 2.0 бітрейт: 192 кб/с
Озвучення:
Аудіо #2: мова: англійська переклад: оригінал кодек: 5.1 бітрейт: 384 кб/с

Субтитри: мова: англійська тип: програмні (м'які) формат: *.srt
Про файл:
General
Unique ID : 223981225683566852305269042861697530745 (0xA88137071FBEC38104C196A73179FB79)
Complete name : G:\Torrents2\MULT\Tom and Jerry The Fast and the Furry.2005.1080p..Ukr.Eng.
Format :
Format version : Version 4
File size : 2.93 GiB
Duration : 1 h 14 min
Overall bit rate : 5 618 kb/s
Movie name : Tom and Jerry The Fast and the Furry 2005 1080p by sergiyko
Encoded date : UTC 2019-01-06 12:50:54
Writing application : v30.0.0 ('Interstellar') 64-bit
Writing library : libebml v1.3.6 + v1.4.9
Cover : Yes
Attachments : cover.jpg

Video
ID : 1
Format : AVC
Format/Info : Advanced Video Codec
Format profile : [email protected]
Format settings : CABAC / 6 Ref Frames
Format settings, CABAC : Yes
Format settings, ReFrames : 6 frames
Codec ID : V_MPEG4/ISO/AVC
Duration : 1 h 14 min
Bit rate : 5 068 kb/s
Width : 1 920 pixels
Height : 1 080 pixels
Display aspect ratio : 16:9
Frame rate mode : Constant
Frame rate : 23.976 (24000/1001) FPS
Color space : YUV
Chroma subsampling : 4:2:0
Bit depth : 8 bits
Scan type : Progressive
Bits/(Pixel*Frame) : 0.102
Stream size : 2.64 GiB (90%)
Title : Tom and Jerry The Fast and the Furry 2005
Writing library : core 152 r2851 ba24899
Encoding settings : cabac=1 / ref=6 / deblock=1:-1:-1 / analyse=0x3:0x133 / me=umh / subme=9 / psy=1 / psy_rd=0.40:0.00 / mixed_ref=1 / me_range=24 / chroma_me=1 / trellis=2 / 8x8dct=1 / cqm=0 / deadzone=21,11 / fast_pskip=1 / chroma_qp_offset=-2 / threads=24 / lookahead_threads=2 / sliced_threads=0 / nr=0 / decimate=1 / interlaced=0 / bluray_compat=0 / constrained_intra=0 / bframes=4 / b_pyramid=2 / b_adapt=2 / b_bias=0 / direct=1 / weightb=1 / open_gop=0 / weightp=2 / keyint=250 / keyint_min=23 / scenecut=40 / intra_refresh=0 / rc_lookahead=60 / rc=crf / mbtree=1 / crf=18.0 / qcomp=0.60 / qpmin=0 / qpmax=69 / qpstep=4 / ip_ratio=1.40 / aq=1:0.60
Language : English
Default : Yes
Forced : No

Audio #1
ID : 2
Format : AC-3
Format/Info : Audio Coding 3
Commercial name : Dolby Digital
Codec ID : A_AC3
Duration : 1 h 14 min
Bit rate mode : Constant
Bit rate : 192 kb/s
Channel(s) : 2 channels
Channel layout : L R
Sampling rate : 48.0 kHz
Frame rate : 31.250 FPS (1536 SPF)
Bit depth : 16 bits
Compression mode : Lossy
Stream size : 102 MiB (3%)
Title : MOV | Новий канал
Language : Ukrainian
Service kind : Complete Main
Default : Yes
Forced : Yes

Audio #2
ID : 3
Format : AC-3
Format/Info : Audio Coding 3
Commercial name : Dolby Digital
Codec ID : A_AC3
Duration : 1 h 8 min
Bit rate mode : Constant
Bit rate : 384 kb/s
Channel(s) : 6 channels
Channel layout : L R C LFE Ls Rs
Sampling rate : 48.0 kHz
Frame rate : 31.250 FPS (1536 SPF)
Bit depth : 16 bits
Compression mode : Lossy
Stream size : 189 MiB (6%)
Title : Original
Language : English
Service kind : Complete Main
Default : No
Forced : No

Text
ID : 4
Format : UTF-8
Codec ID : S_TEXT/UTF8
Codec ID/Info : UTF-8 Plain Text
Duration : 1 h 10 min
Bit rate : 48 b/s
Count of elements : 652
Stream size : 25.2 KiB (0%)
Language : English
Default : No
Forced : No

Menu
00:00:00.000 : :
00:01:19.077 : :
00:06:09.994 : :
00:14:40.546 : :
00:22:03.320 : :
00:26:02.351 : :
00:30:24.864 : :
00:38:47.241 : :
00:49:26.129 : :
00:52:49.040 : :
01:00:01.597 : :
01:06:15.137 : :
01:11:34.289 : :
Скріншоти:



Запис/зведення/ріп: sergiyko


 Трекер:    Зареєстрований   

Завантажити / скачати мультфільм українською



відео для новачків



 Зареєстрований:   2019-01-06 15:05
 Розмір:   2.93 GB 
 Оцінка мультфільму:   10/10 (Голосів: 4)
   
Ваш часовий пояс: GMT + 2 Години

Нова тема   Відповісти