Ґолдберги (Сезон 3) / The Goldbergs (Season 3) (2015-2016) 1080p Ukr/Eng | Sub Eng

Нові коментарі

Нова тема   Відповісти
Автор Повідомлення
Anonymous 







2019-01-06 11:48  
Ґолдберги (Сезон 3) / The Goldbergs (Season 3) (2015-2016) 1080p Ukr/Eng | Sub Eng

Ґолдберги (Сезон 3) / The Goldbergs (Season 3) (2015-2016) 1080p Ukr/Eng | Sub Eng


Жанр: ситком, комедія
Країна: США



Кінокомпанія: Adam F. Goldberg Productions, Happy Madison Productions, Sony Pictures Television
Режисер: Адам Ф. Ґолдберг / Adam F. Goldberg
Актори: Венді Маклендон-Кові / Wendi McLendon-Covey, Сіан Ґамброн / Sean Giambrone, Трой Джентіле / Troy Gentile, Гейлі Орранція / Hayley Orrantia, Джордж Сігал / George Segal, Джефф Гарлін / Jeff Garlin та інші.

Сюжет:
Ааерика вісімдесятих років минулого століття... Єврейську родину Ґолдбергів знає вся околиця. Батько сімейства Мюррей - деспот, який вважає що він завжди має рацію. Всі суперечки чоловік вирішує криками і образами, а свою дружину привчив до того ж. Старші діти вдалися в батьків, їхню поведінку важко назвати зразковою. Найнормальніший член родини - одинадцятирічний Адам, який мріє стати режисером і знімає на камеру все, що відбувається в галасливому будинку.


Тривалість: 1 серія: 1 серія: 21:00 (цілком серій: 24)
Перелік серій
1 Sep 23, 2015 A Kick- Risky Business Party
2 Sep 30, 2015 A Chorus Lie
3 Oct 07, 2015 Jimmy 5 is Alive
4 Oct 14, 2015 I Caddyshacked the Pool
5 Oct 21, 2015 Boy Barry
6 Oct 28, 2015 Couples Costume
7 Nov 11, 2015 Lucky
8 Nov 18, 2015 In Conclusion, Thanksgiving
9 Dec 02, 2015 Wingmom
10 Dec 09, 2015 A Christmas Story
11 Jan 06, 2016 The Tasty Boys
12 Jan 13, 2016 Baio and Switch
13 Jan 20, 2016 Double Dare
14 Feb 10, 2016 Lainey Loves Lionel
15 Feb 17, 2016 Weird Al
16 Feb 24, 2016 Edward 'Eddie the Eagle' Edwards
17 Mar 02, 2016 The Dirty Dancing Dance
18 Mar 16, 2016 12 Tapes for a Penny
19 Mar 23, 2016 Magic is Real
20 Apr 06, 2016 Dungeons and Dragons, Anyone?
21 Apr 13, 2016 Rush
22 May 04, 2016 Smother's Day
23 May 11, 2016 Big Orange
24 May 18, 2016 Have a Summer
Special Apr 27, 2016 An 80s Rewind
Якість:
Відео:
кодек:
розмір кадру: 1920 х 1080
бітрейт: 7-15 мб/с

Аудіо # 1:
мова: українська
переклад: багатоголосий закадровий
кодек: 2.0
бітрейт: 192 кб/с

Джерело озвучення:


Аудіо # 2:
мова: англійська
переклад: оригінал
кодек: E- 5.1
бітрейт: 640 кб/с

Субтитри:
мова: англійська
тип: програмні (м'які)
формат: *.srt
MI
Complete name : F:\The Goldbergs - Season 3 (2015-2016) [Ukr.Eng] 1080p [Hurtom]\The Goldbergs S03E01 - A Kick- Risky Business Party [Ukr.Eng] 1080p [Hurtom].
Format :
Format version : Version 4
File size : 1.22 GiB
Duration : 21 min 35 s
Overall bit rate mode : Variable
Overall bit rate : 8 072 kb/s
Encoded date : UTC 2019-01-05 13:34:37
Writing application : v27.0.0 ('Metropolis') 64-bit
Writing library : libebml v1.3.6 + v1.4.9
Cover : Yes
Attachments : cover.png

Video
ID : 1
Format : AVC
Format/Info : Advanced Video Codec
Format profile : [email protected]
Format settings : CABAC / 4 Ref Frames
Format settings, CABAC : Yes
Format settings, ReFrames : 4 frames
Codec ID : V_MPEG4/ISO/AVC
Duration : 21 min 35 s
Bit rate mode : Variable
Bit rate : 7 210 kb/s
Maximum bit rate : 15.0 Mb/s
Width : 1 920 pixels
Height : 1 080 pixels
Display aspect ratio : 16:9
Frame rate mode : Constant
Frame rate : 23.976 (24000/1001) FPS
Color space : YUV
Chroma subsampling : 4:2:0
Bit depth : 8 bits
Scan type : Progressive
Bits/(Pixel*Frame) : 0.145
Stream size : 1.09 GiB (89%)
Writing library : core 148 r2623 d5b2374
Encoding settings : cabac=1 / ref=4 / deblock=1:-1:-1 / analyse=0x3:0x133 / me=umh / subme=9 / psy=1 / psy_rd=1.00:0.15 / mixed_ref=1 / me_range=24 / chroma_me=1 / trellis=2 / 8x8dct=1 / cqm=0 / deadzone=21,11 / fast_pskip=1 / chroma_qp_offset=-3 / threads=34 / lookahead_threads=5 / sliced_threads=0 / nr=150 / decimate=1 / interlaced=0 / bluray_compat=0 / constrained_intra=0 / bframes=8 / b_pyramid=2 / b_adapt=2 / b_bias=0 / direct=3 / weightb=1 / open_gop=0 / weightp=2 / keyint=120 / keyint_min=61 / scenecut=0 / intra_refresh=0 / rc_lookahead=120 / rc=crf / mbtree=1 / crf=18.0 / qcomp=0.60 / qpmin=0 / qpmax=69 / qpstep=4 / vbv_maxrate=15000 / vbv_bufsize=31250 / crf_max=0.0 / nal_hrd=vbr / filler=0 / ip_ratio=1.40 / aq=3:1.00
Language : English
Default : Yes
Forced : No
Color range : Limited
Color primaries : BT.709
Transfer characteristics : BT.709
Matrix coefficients : BT.709

Audio #1
ID : 2
Format : AC-3
Format/Info : Audio Coding 3
Commercial name : Dolby Digital
Codec ID : A_AC3
Duration : 21 min 34 s
Bit rate mode : Constant
Bit rate : 192 kb/s
Channel(s) : 2 channels
Channel layout : L R
Sampling rate : 48.0 kHz
Frame rate : 31.250 FPS (1536 SPF)
Bit depth : 16 bits
Compression mode : Lossy
Stream size : 29.6 MiB (2%)
Language : Ukrainian
Service kind : Complete Main
Default : Yes
Forced : No

Audio #2
ID : 3
Format : E-AC-3
Format/Info : Enhanced AC-3
Commercial name : Dolby Digital Plus
Codec ID : A_EAC3
Duration : 21 min 35 s
Bit rate mode : Constant
Bit rate : 640 kb/s
Channel(s) : 6 channels
Channel layout : L R C LFE Ls Rs
Sampling rate : 48.0 kHz
Frame rate : 31.250 FPS (1536 SPF)
Compression mode : Lossy
Stream size : 98.8 MiB (8%)
Title : English
Language : English
Service kind : Complete Main
Default : No
Forced : No

Text
ID : 4
Format : UTF-8
Codec ID : S_TEXT/UTF8
Codec ID/Info : UTF-8 Plain Text
Duration : 21 min 26 s
Bit rate : 121 b/s
Count of elements : 558
Stream size : 19.1 KiB (0%)
Title : English
Language : English
Default : No
Forced : No
Скріншоти





Робота над релізом:
Anonymous

Джерело:
Особиста оцінка: 10 - без зайвих вагань рекомендую всім!


Бронзовий реліз (на рейтинг впливає 75% завантаженого)
 Трекер:    Зареєстрований   

Завантажити / скачати серіал українською



відео для новачків



 Зареєстрований:   2019-01-06 11:48
 Розмір:   27.94 GB 
 Оцінка серіалу:   10/10 (Голосів: 5)
   
Anоnymous 
VIP


З нами з: 25.08.18
Востаннє: 04.06.19
Повідомлень: 808

2019-01-06 12:33  
Дякую!
papir25 
Частий відвідувач


З нами з: 25.02.15
Востаннє: 29.11.20
Повідомлень: 25

2020-01-26 09:55  
Качаю)))))
Ваш часовий пояс: GMT + 2 Години

Нова тема   Відповісти