Під Сільвер Лейк / Under The Silver Lake (2018) 1080p H.265 3xUkr/Eng | Sub Eng

Нові коментарі

Нова тема   Відповісти
Автор Повідомлення
Anonymous 







2019-01-06 02:24  
Під Сільвер Лейк / Under The Silver Lake (2018) 1080p H.265 3xUkr/Eng | Sub Eng

Під Сільвер Лейк / Under The Silver Lake (2018) 1080p H.265 3xUkr/Eng | Sub Eng


Жанр: комедія, кримінальний, драма, детектив, трилер
Країна: США
Кінокомпанія: Vendian Entertainment, Stay Gold Features, Good Fear Film + Management
Режисер: Девід Роберт Мітчел / David Robert Mitchell
Актори: Ендрю Ґарфілд / Andrew Garfield, Венді Ванден Гувел / Wendy Vanden Heuvel, Дебора Ґеффнер / Deborah Geffner, Райлі Кіо / Riley Keough, Рікі Ліндгоум / Riki Lindhome, Жанін Кота / Jeannine Cota, Кріс Ґанн / Chris Gann та інші.

Сюжет:
Сем знайомиться з дівчиною, яка наступного дня зникає за загадкових обставин. Тепер він одержимий ідеєю знайти її, та намагається знайти хоч якісь зачіпки в усьому, що він бачить та чує. Несподівано він знаходить щось схоже на код чи ланцюжок таємних повідомлень...

Тривалість: 02:19:22
Якість:

Відео:
кодек: H.265 (HEVC)
розмір кадру: 1920 x 800
бітрейт: 5 382 кб/с
бітова глибина: 10 біт

Увага! Перед завантаженням переконайтесь, що ваш пристрій відтворення (та/або ПЗ) підтримує H.265 (HEVC)

Аудіо # 1:
мова: українська
переклад: професійний дубльований
кодек: AC-3 2.0
бітрейт: 192 кб/с

Аудіо # 2:
мова: українська
переклад: багатоголосий закадровий | DniproFilm
кодек: AC-3 5.1
бітрейт: 640 кб/с

Аудіо # 3:
мова: українська
переклад: багатоголосий закадровий
кодек: AC-3 2.0
бітрейт: 192 кб/с

Аудіо # 4:
мова: англійська
переклад: оригінал
кодек: 5.1
бітрейт: 1510 кб/с

Субтитри # 1: (Full)
мова: англійська
тип: програмні (м'які)
формат: *.srt


Info
Код:
General
Unique ID                                : 329896278789747134982400133110487471992 (0xF82FB651D78B6D2BAF0EF9B59DD25778)
Complete name                            : Under the Silver Lake (2018) 1080p H.265 [3xUKR_ENG] [Hurtom].
Format                                   :
Format version                           : Version 4
File size                                : 7.71 GiB
Duration                                 : 2 h 19 min
Overall bit rate                         : 7 922 kb/s
Movie name                               : Під Сільвер Лейк / Under The Silver Lake (2018)
Encoded date                             : UTC 2019-08-04 12:02:42
Writing application                      : v20.0.0 ('I Am The Sun') 64-bit
Writing library                          : libebml v1.3.5 + v1.4.8
Cover                                    : Yes
Attachments                              : Cover.png

Video
ID                                       : 1
Format                                   : HEVC
Format/Info                              : High Efficiency Video Coding
Format profile                           : Main [email protected]@High
Codec ID                                 : V_MPEGH/ISO/HEVC
Duration                                 : 2 h 19 min
Bit rate                                 : 5 382 kb/s
Width                                    : 1 920 pixels
Height                                   : 800 pixels
Display aspect ratio                     : 2.40:1
Frame rate mode                          : Constant
Frame rate                               : 23.976 (24000/1001) FPS
Color space                              : YUV
Chroma subsampling                       : 4:2:0
Bit depth                                : 10 bits
Bits/(Pixel*Frame)                       : 0.146
Stream size                              : 5.24 GiB (68%)
Title                                    : Під Сільвер Лейк / Under The Silver Lake (2018)
Writing library                          : x265 2.9+2-7e978ed93d60:[Windows][GCC 8.2.0][64 bit] 10bit
Encoding settings                        : cpuid=1111039 / frame-threads=4 / numa-pools=14,14 / wpp / pmode / no-pme / no-psnr / no-ssim / log-level=2 / input-csp=1 / input-res=1920x800 / interlace=0 / total-frames=200496 / level-idc=41 / high-tier=1 / uhd-bd=0 / ref=3 / no-allow-non-conformance / no-repeat-headers / annexb / no-aud / no-hrd / info / hash=0 / no-temporal-layers / open-gop / min-keyint=23 / keyint=240 / gop-lookahead=0 / bframes=4 / b-adapt=2 / b-pyramid / bframe-bias=0 / rc-lookahead=20 / lookahead-slices=5 / scenecut=40 / radl=0 / no-intra-refresh / ctu=32 / min-cu-size=8 / no-rect / no-amp / max-tu-size=32 / tu-inter-depth=1 / tu-intra-depth=1 / limit-tu=0 / rdoq-level=0 / dynamic-rd=0.00 / no-ssim-rd / signhide / no-tskip / nr-intra=0 / nr-inter=0 / no-constrained-intra / no-strong-intra-smoothing / max-merge=2 / limit-refs=0 / no-limit-modes / me=2 / subme=5 / merange=32 / temporal-mvp / weightp / no-weightb / no-analyze-src-pics / deblock=-3:-3 / no-sao / no-sao-non-deblock / rd=3 / no-early-skip / rskip / no-fast-intra / no-tskip-fast / no-cu-lossless / no-b-intra / no-splitrd-skip / rdpenalty=0 / psy-rd=2.00 / psy-rdoq=0.00 / no-rd-refine / no-lossless / cbqpoffs=0 / crqpoffs=0 / rc=crf / crf=16.0 / qcomp=0.60 / qpstep=4 / stats-write=0 / stats-read=0 / vbv-maxrate=50000 / vbv-bufsize=50000 / vbv-init=0.9 / crf-max=0.0 / crf-min=0.0 / ipratio=1.40 / pbratio=1.30 / aq-mode=1 / aq-strength=1.00 / cutree / zone-count=0 / no-strict-cbr / qg-size=32 / no-rc-grain / qpmax=69 / qpmin=0 / no-const-vbv / sar=0 / overscan=0 / videoformat=5 / range=0 / colorprim=1 / transfer=1 / colormatrix=1 / chromaloc=0 / display-window=0 / max-cll=0,0 / min-luma=0 / max-luma=1023 / log2-max-poc-lsb=8 / vui-timing-info / vui-hrd-info / slices=1 / no-opt-qp-pps / no-opt-ref-list-length-pps / no-multi-pass-opt-rps / scenecut-bias=0.05 / no-opt-cu-delta-qp / no-aq-motion / no-hdr / no-hdr-opt / no-dhdr10-opt / no-idr-recovery-sei / analysis-reuse-level=5 / scale-factor=0 / refine-intra=0 / refine-inter=0 / refine-mv=0 / no-limit-sao / ctu-info=0 / no-lowpass-dct / refine-mv-type=0 / copy-pic=1 / max-ausize-factor=1.0 / no-dynamic-refine / no-single-sei
Language                                 : English
Default                                  : Yes
Forced                                   : No
Color range                              : Limited
Color primaries                          : BT.709
Transfer characteristics                 : BT.709
Matrix coefficients                      : BT.709

Audio #1
ID                                       : 2
Format                                   : AC-3
Format/Info                              : Audio Coding 3
Commercial name                          : Dolby Digital
Codec ID                                 : A_AC3
Duration                                 : 2 h 19 min
Bit rate mode                            : Constant
Bit rate                                 : 192 kb/s
Channel(s)                               : 2 channels
Channel layout                           : L R
Sampling rate                            : 48.0 kHz
Frame rate                               : 31.250 FPS (1536 SPF)
Bit depth                                : 16 bits
Compression mode                         : Lossy
Stream size                              : 191 MiB (2%)
Title                                    : / 2.0 Ch / 192 kbps / ПД / Novy Kanal
Language                                 : Ukrainian
Service kind                             : Complete Main
Default                                  : Yes
Forced                                   : Yes

Audio #2
ID                                       : 3
Format                                   : AC-3
Format/Info                              : Audio Coding 3
Commercial name                          : Dolby Digital
Codec ID                                 : A_AC3
Duration                                 : 2 h 19 min
Bit rate mode                            : Constant
Bit rate                                 : 640 kb/s
Channel(s)                               : 6 channels
Channel layout                           : L R C LFE Ls Rs
Sampling rate                            : 48.0 kHz
Frame rate                               : 31.250 FPS (1536 SPF)
Bit depth                                : 16 bits
Compression mode                         : Lossy
Stream size                              : 638 MiB (8%)
Title                                    : / 5.1 Ch / 640 kbps / БЗ / DniproFilm
Language                                 : Ukrainian
Service kind                             : Complete Main
Default                                  : No
Forced                                   : No

Audio #3
ID                                       : 4
Format                                   : AC-3
Format/Info                              : Audio Coding 3
Commercial name                          : Dolby Digital
Codec ID                                 : A_AC3
Duration                                 : 2 h 19 min
Bit rate mode                            : Constant
Bit rate                                 : 192 kb/s
Channel(s)                               : 2 channels
Channel layout                           : L R
Sampling rate                            : 48.0 kHz
Frame rate                               : 31.250 FPS (1536 SPF)
Bit depth                                : 16 bits
Compression mode                         : Lossy
Stream size                              : 191 MiB (2%)
Title                                    : / 2.0 Ch / 192 kbps / БЗ / Cine+
Language                                 : Ukrainian
Service kind                             : Complete Main
Default                                  : No
Forced                                   : No

Audio #4
ID                                       : 5
Format                                   :
Format/Info                              : Digital Theater Systems
Codec ID                                 : A_DTS
Duration                                 : 2 h 19 min
Bit rate mode                            : Constant
Bit rate                                 : 1 509 kb/s
Channel(s)                               : 6 channels
Channel layout                           : C L R Ls Rs LFE
Sampling rate                            : 48.0 kHz
Frame rate                               : 93.750 FPS (512 SPF)
Bit depth                                : 24 bits
Compression mode                         : Lossy
Stream size                              : 1.47 GiB (19%)
Title                                    : / 5.1 Ch / 1509 kbps / Original
Language                                 : English
Default                                  : No
Forced                                   : No

Text
ID                                       : 6
Format                                   : UTF-8
Codec ID                                 : S_TEXT/UTF8
Codec ID/Info                            : UTF-8 Plain Text
Duration                                 : 2 h 14 min
Bit rate                                 : 43 b/s
Count of elements                        : 1359
Stream size                              : 43.4 KiB (0%)
Title                                    : Full
Language                                 : English
Default                                  : Yes
Forced                                   : No

Menu
00:00:00.000                             : :Chapter 01
00:09:17.014                             : :Chapter 02
00:18:07.169                             : :Chapter 03
00:28:09.896                             : :Chapter 04
00:37:20.613                             : :Chapter 05
00:44:13.817                             : :Chapter 06
00:54:04.157                             : :Chapter 07
01:04:16.102                             : :Chapter 08
01:13:33.242                             : :Chapter 09
01:22:21.853                             : :Chapter 10
01:29:52.845                             : :Chapter 11
01:36:43.798                             : :Chapter 12
01:43:59.858                             : :Chapter 13
01:54:45.712                             : :Chapter 14
02:07:37.316                             : :Chapter 15
Світлини




Джерело: &
Особиста оцінка: 0 - не дивився


Авторський реліз (завантажувати можна без реєстрації)
 Трекер:    Зареєстрований   

Завантажити / скачати фільм українською



відео для новачків



 Зареєстрований:   2019-08-04 14:16
 Розмір:   7.71 GB 
 Оцінка фільму:   8.8/10 (Голосів: 16)
   
waldi-hurtom 
VIP


З нами з: 07.10.12
Востаннє: 25.01.20
Повідомлень: 1073

2019-01-07 21:50  
Молодіжна версія Кода да Вінчі. Більше жіночого тільця, більш кумедний та дотепний. Дурня, звісно, і те, і інше, але цей фільм мені більше сподобався. 10 балів. Дякую!
Lyolic 
VIP


З нами з: 04.08.09
Востаннє: 25.01.20
Повідомлень: 420

2019-01-11 21:49  
Ніяк не складу враження від фільму... Але автори явно підсіли на важку наркоту )))
Anonymous 







2019-02-13 12:57  
Додано доріжку від 
EvGaS 
Відео Гуртом - субтитрування
Відео Гуртом - субтитрування


З нами з: 27.02.12
Востаннє: 31.07.19
Повідомлень: 5672

2019-02-15 09:08  
Гидко було на таке кіно дивитись — самі голі цицьки та сортирний гумор як обісцяна автівка. Sad (1)

Молодіжним не назвав мабуть — молодіжне кіно і комедії можуть і без гуморку «з душком» бути. Воно більш до різновиду тупих комедій. Зізнаюся, сам свого часу те ж саме Дуже страшне кіно дививсь трохи серіалізацію, та там був стиль у розмаху жартів. А тут чомусь огида і бажання перемотати.

SenyaMazurov 
Новенький


З нами з: 11.02.12
Востаннє: 07.01.20
Повідомлень: 2

2019-02-17 14:47  
Кайфанув безмежно!! Легко, весело, угарно, десь дивакувато, люблю такє кінцо!

Загалом оцінка 10 із 10.

Всім поціновувачам легкого трешачка із присмаком пригод - рекомендую.

PS: Актори підібрані в дірочку :D

Anonymous 







2019-08-04 14:16  
Додав дубляж, замінив відеоряд на якісніший.
oster_ok 
Відео Гуртом - підтримка та поширення
Відео Гуртом - підтримка та поширення


З нами з: 20.11.11
Востаннє: 24.01.20
Повідомлень: 156

2019-08-04 20:35  
багато незрозумілив моментів, як от..
... з композитором або чому ця папуга завжди вигукувала "Hollywood"
Але загалом фільм на 8. Один раз подивитися, полюбуватися красунями і дівчачими тільцями Happy

Ваш часовий пояс: GMT + 2 Години

Нова тема   Відповісти