Казино Рояль (Джеймс Бонд Агент 007 James Bond) / Casino Royale (1967) Remux 1080p Ukr/Eng | Sub Eng

Нові коментарі

Нова тема   Відповісти
Автор Повідомлення
MakRA 
VIP


З нами з: 11.11.18
Востаннє: 27.09.20
Повідомлень: 1120

2019-01-06 02:12  
Казино Рояль / Casino Royale (1967) Remux 1080p Ukr/Eng | Sub Eng


Український постер:

Альтернативні обкладинки:





Жанр: комедія, пародія, пригодницький
Країна: Велика Британія , США



Кінокомпанія: Famous Artists Productions, Columbia Pictures
Режисер: Кен Г'юз [Ken Hughes], Джон Г'юстон [John Marcellus Huston], Джозеф МакГрат [Joseph McGrath], Вал Гест [Val Guest]
Актори: Девід Найвен [David Niven], Пітер Селлерс [Peter Sellers], Урсула Андрес [Ursula Andress], Орсон Веллс [George Orson Welles], Вуді Аллен [Woody Allen], Шарль Буайє [Charles Boyer], Дебора Керр [Deborah Kerr], Далія Лаві [Daliah Lavi], Джоанна Петтет [Joanna Pettet].

Сюжет:
Фільм є пародією на пригоди відомого агента британської розвідки. Джеймс пішов на пенсію після смерті коханої і тепер живе в заміському маєтку.
Всі чудово знають, що він відійшов від справ, але одного разу в його будинку з'являються представники секретних служб різних держав. Усі вони просять його повернутися, оскільки потребують його як ніколи раніше.
Вся справа в тому, що по всьому світу починають пропадати секретні агенти і відповідальність за це бере на себе терористична організація СМЕРШ.
Однак Бонд заявляє, що більше не має наміру брати в руки зброю і ні за що не повернеться до служби. Можливо, у нього просто не буде іншого вибору?..

Єдина комедія бондіани, поставлена за однойменним романом Яна Флемінга.


Тривалість: 02:11:09
Якість: Remux 1080p
Відео:
кодек:
розмір кадру: 1920 х 1080
бітрейт: 39,9 Мб/с

Аудіо # 1:
мова: українська
переклад: багатоголосий закадровий
кодек: 5.1
бітрейт: 384 kb/s

Аудіо # 2:
мова: англійська
переклад: оригінал
кодек: -HD MA 5.1
бітрейт: 3876 kb/s

Аудіо # 3:
мова: англійська
переклад: коментарі Вуді Аллена
кодек: 2.0
бітрейт: 192 kb/s

Субтитри # 1: (Full)
мова: англійська
тип: пререндерні
формат: *.pgs

Субтитри # 2: (SDH)
мова: англійська
тип: пререндерні
формат: *.pgs

Збережено оригінальні розділи, як на Blu-ray.
Info
General
Unique ID : 165223576674907153364121485387837414581 (0x7C4CE7442767D5A8B2A10D5F56431CB5)
Complete name : N:\+James Bond Movie Collection\Casino Royale (1967) Remux 1080p UkrEng Sub Eng [Hurtom].
Format :
Format version : Version 4
File size : 37.0 GiB
Duration : 2 h 11 min
Overall bit rate mode : Variable
Overall bit rate : 40.4 Mb/s
Movie name : Казино Рояль / Casino Royale (1967) Remux 1080p Ukr/Eng | Sub Eng [Hurtom]
Encoded date : UTC 2019-10-10 20:56:52
Writing application : v25.0.0 ('Prog Noir') 64-bit
Writing library : libebml v1.3.6 + v1.4.9
Cover : Yes
Attachments : cover.jpg

Video
ID : 1
Format : AVC
Format/Info : Advanced Video Codec
Format profile : [email protected]
Format settings : CABAC / 4 Ref Frames
Format settings, CABAC : Yes
Format settings, Reference fra : 4 frames
Codec ID : V_MPEG4/ISO/AVC
Duration : 2 h 11 min
Bit rate mode : Variable
Bit rate : 35.9 Mb/s
Maximum bit rate : 38.5 Mb/s
Width : 1 920 pixels
Height : 1 080 pixels
Display aspect ratio : 16:9
Frame rate mode : Constant
Frame rate : 23.976 (24000/1001) FPS
Color space : YUV
Chroma subsampling : 4:2:0
Bit depth : 8 bits
Scan type : Progressive
Bits/(Pixel*Frame) : 0.723
Stream size : 32.9 GiB (89%)
Title : Casino Royale (1967) Remux 1080p Ukr/Eng | Sub Eng [Hurtom]
Language : Ukrainian
Default : Yes
Forced : Yes
Color range : Limited
Color primaries : BT.709
Transfer characteristics : BT.709
Matrix coefficients : BT.709

Audio #1
ID : 2
Format : AC-3
Format/Info : Audio Coding 3
Commercial name : Dolby Digital
Codec ID : A_AC3
Duration : 2 h 11 min
Bit rate mode : Constant
Bit rate : 384 kb/s
Channel(s) : 6 channels
Channel layout : L R C LFE Ls Rs
Sampling rate : 48.0 kHz
Frame rate : 31.250 FPS (1536 SPF)
Bit depth : 16 bits
Compression mode : Lossy
Delay relative to video : 1 s 0 ms
Stream size : 360 MiB (1%)
Title : MVO 5.1
Language : Ukrainian
Service kind : Complete Main
Default : Yes
Forced : Yes

Audio #2
ID : 3
Format : XLL
Format/Info : Digital Theater Systems
Commercial name : -HD Master Audio
Codec ID : A_DTS
Duration : 2 h 11 min
Bit rate mode : Variable
Bit rate : 3 876 kb/s
Channel(s) : 6 channels
Channel layout : C L R Ls Rs LFE
Sampling rate : 48.0 kHz
Frame rate : 93.750 FPS (512 SPF)
Bit depth : 24 bits
Compression mode : Lossless
Stream size : 3.55 GiB (10%)
Title : Original -HD MA 5.1
Language : English
Default : No
Forced : No

Audio #3
ID : 4
Format : AC-3
Format/Info : Audio Coding 3
Commercial name : Dolby Digital
Codec ID : A_AC3
Duration : 2 h 11 min
Bit rate mode : Constant
Bit rate : 192 kb/s
Channel(s) : 2 channels
Channel layout : L R
Sampling rate : 48.0 kHz
Frame rate : 31.250 FPS (1536 SPF)
Bit depth : 16 bits
Compression mode : Lossy
Stream size : 180 MiB (0%)
Title : Original 2.0
Language : English
Service kind : Complete Main
Default : No
Forced : No

Text #1
ID : 5
Format : PGS
Muxing mode : zlib
Codec ID : S_HDMV/PGS
Codec ID/Info : Picture based subtitle format used on BDs/HD-DVDs
Duration : 2 h 10 min
Bit rate : 39.4 kb/s
Count of elements : 2880
Stream size : 36.8 MiB (0%)
Title : Eng (Full)
Language : English
Default : No
Forced : No

Text #2
ID : 6
Format : PGS
Muxing mode : zlib
Codec ID : S_HDMV/PGS
Codec ID/Info : Picture based subtitle format used on BDs/HD-DVDs
Duration : 2 h 10 min
Bit rate : 39.4 kb/s
Count of elements : 2880
Stream size : 36.8 MiB (0%)
Title : Eng (SDH)
Language : English
Default : Yes
Forced : No

Menu
00:00:00.000 : en:Main Title/Lions
00:05:42.383 : en:Taking the Black Rose
00:12:03.848 : en:The Hair-loom
00:15:46.487 : en:A Bath With Buttercup
00:19:23.954 : en:"Good Night, Ladies"
00:21:47.848 : en:A Friendly Ball Game
00:28:04.391 : en:Target Practice
00:37:02.511 : en:Firing Squad
00:40:24.380 : en:Finding the New 007
00:44:19.031 : en:"The Look of Love"
00:52:11.169 : en:Playing Dress-Up
00:56:34.641 : en:Q's Spy Gadgets
01:01:20.885 : en:Mata Hari's Daughter
01:08:19.053 : en:Teacher & Flunky
01:16:42.681 : en:The Art Auction
01:22:20.936 : en:Miss Goodthighs
01:28:55.371 : en:A Magical Performance
01:41:04.475 : en:"Torture of the Mind"
01:46:17.788 : en:Kidnapped!
01:50:22.282 : en:Trapped in a Maze
01:53:15.872 : en:The Crazy Dr. Noah
01:58:59.090 : en:Spiked Champagne
02:03:33.030 : en:Royale Pandemonium
02:08:41.213 : en:End Credits
Скріншоти
Джерело: &
Особиста оцінка: 8 - мені сподобалося



Золотий реліз (завантажене не впливає на рейтинг)
 Трекер:    Зареєстрований   

Завантажити / скачати фільм українською



відео для новачків



 Зареєстрований:   2019-10-11 00:39
 Розмір:   37.04 GB 
 Оцінка фільму:   9.9/10 (Голосів: 7)
   
MakRA 
VIP


З нами з: 11.11.18
Востаннє: 27.09.20
Повідомлень: 1120

2019-01-06 02:17  
Фільм звичайно на любителя Happy, один з тих, що не з класичної (офіційної) антології,але..
Мені було років 15 назад цікаво подивитися. Тепер ще разок освіжу пам"ять.

igor911 
Модератор відео


З нами з: 18.01.08
Востаннє: 27.09.20
Повідомлень: 15006

2019-01-06 02:29  
MakRA написано:
Remux 1080p

MakRA написано:
rc=2pass / bitrate=14020

Це , а не ремукс, виправ, будь ласка.

11FrYkT 
Модератор відео


З нами з: 20.02.11
Востаннє: 27.09.20
Повідомлень: 7005

2019-01-06 16:29  
MakRA , ріп та ще й з необрізаними смугами, бажано знайти щось краще і оновити
MakRA 
VIP


З нами з: 11.11.18
Востаннє: 27.09.20
Повідомлень: 1120

2019-01-06 17:05  
11FrYkT
Знайду, оновлю. Поки що немає кращого (сам хочу) Happy

MakRA 
VIP


З нами з: 11.11.18
Востаннє: 27.09.20
Повідомлень: 1120

2019-10-11 00:43  
Реліз оновлено на Remux 1080p (краща якість)
Ваш часовий пояс: GMT + 2 Години

Нова тема   Відповісти