Під Сільвер Лейк / Under The Silver Lake (2018) 720p 2xUkr/Eng | Sub Eng

Нові коментарі

Нова тема   Відповісти
Автор Повідомлення
Anonymous 







2019-01-06 01:54  
Під Сільвер Лейк / Under The Silver Lake (2018) 720p 2xUkr/Eng | Sub Eng

Під Сільвер Лейк / Under The Silver Lake (2018) 720p 2xUkr/Eng | Sub Eng


Жанр: трилер, драма, комедія, кримінальний, детектив
Країна: США



Кінокомпанія: Vendian Entertainment, Stay Gold Features, Good Fear Film + Management
Режисер: Девід Роберт Мітчел
Актори: Ендрю Гарфілд, Венді Ванден Хювел, Дебора Геффнер, Райлі Кіо, Рікі Ліндхоум, Джанін Кота, Кріс Генн, Каллі Ернандес, Джесіка Макінсон, Різ Хартвіг

Сюжет:
Сем знайомиться з дівчиною, яка наступного дня зникає за загадкових обставин. Тепер він одержимий ідеєю знайти її, та намагається знайти хоч якісь зачіпки в усьому, що він бачить та чує. Несподівано він знаходить щось схоже на код чи ланцюжок таємних повідомлень...


Реліз без реклами


Тривалість: 02:19:22
Якість: 720p
Відео:
кодек:
розмір кадру: 1280 х 534
бітрейт: 6259 кб/с

Аудіо # 1:
мова: українська
переклад: багатоголосий закадровий | DniproFilm
кодек: 5.1
бітрейт: 384 кб/с

Аудіо # 2:
мова: українська
переклад: багатоголосий закадровий |
кодек: 2.0
бітрейт: 192 кб/с

Аудіо # 3:
мова: англійська
переклад: оригінал
кодек: 5.1
бітрейт: 640 кб/с
Info
Format :
Format version : Version 4
File size : 7.28 GiB
Duration : 2 h 19 min
Overall bit rate : 7 481 kb/s
Movie name : Під Сільвер Лейк / Under The Silver Lake (2018)
Encoded date : UTC 2019-02-14 10:13:13
Writing application : v27.0.0 ('Metropolis') 64-bit
Writing library : libebml v1.3.6 + v1.4.9
Cover : Yes
Attachments : cover.png / cover.jpg

Video
ID : 1
Format : AVC
Format/Info : Advanced Video Codec
Format profile : [email protected]
Format settings : CABAC / 12 Ref Frames
Format settings, CABAC : Yes
Format settings, ReFrames : 12 frames
Codec ID : V_MPEG4/ISO/AVC
Duration : 2 h 19 min
Bit rate : 6 259 kb/s
Width : 1 280 pixels
Height : 534 pixels
Display aspect ratio : 2.40:1
Frame rate mode : Constant
Frame rate : 23.976 (24000/1001) FPS
Color space : YUV
Chroma subsampling : 4:2:0
Bit depth : 8 bits
Scan type : Progressive
Bits/(Pixel*Frame) : 0.382
Stream size : 6.09 GiB (84%)
Writing library : core 155 r2867+74 66b5600 t_mod_Custom_2 [[email protected] X86_64]
Encoding settings : cabac=1 / ref=12 / deblock=1:-3:-3 / analyse=0x3:0x113 / me=umh / subme=11 / psy=1 / fade_compensate=0.00 / psy_rd=1.00:0.00 / mixed_ref=1 / me_range=32 / chroma_me=1 / trellis=2 / 8x8dct=1 / cqm=0 / deadzone=21,11 / fast_pskip=0 / chroma_qp_offset=-2 / threads=12 / lookahead_threads=2 / sliced_threads=0 / nr=0 / decimate=0 / interlaced=0 / bluray_compat=0 / constrained_intra=0 / fgo=0 / bframes=9 / b_pyramid=2 / b_adapt=2 / b_bias=0 / direct=3 / weightb=1 / open_gop=0 / weightp=2 / keyint=250 / keyint_min=23 / scenecut=40 / intra_refresh=0 / rc_lookahead=60 / rc=crf / mbtree=0 / crf=14.1000 / qcomp=0.60 / qpmin=0:0:0 / qpmax=69:69:69 / qpstep=4 / vbv_maxrate=30000 / vbv_bufsize=38000 / crf_max=0.0 / nal_hrd=none / filler=0 / ip_ratio=1.30 / pb_ratio=1.20 / aq=3:0.80 / aq-sensitivity=10.00 / aq-factor=1.00:1.00:1.00 / aq2=0 / aq3=0 / zones=249,480,crf=11.5
Language : English
Default : Yes
Forced : No
Color range : Limited
Color primaries : BT.709
Transfer characteristics : BT.709
Matrix coefficients : BT.709

Audio #1
ID : 2
Format : AC-3
Format/Info : Audio Coding 3
Commercial name : Dolby Digital
Codec ID : A_AC3
Duration : 2 h 19 min
Bit rate mode : Constant
Bit rate : 384 kb/s
Channel(s) : 6 channels
Channel layout : L R C LFE Ls Rs
Sampling rate : 48.0 kHz
Frame rate : 31.250 FPS (1536 SPF)
Bit depth : 16 bits
Compression mode : Lossy
Stream size : 382 MiB (5%)
Title : MVO - DniproFilm
Language : Ukrainian
Service kind : Complete Main
Default : Yes
Forced : Yes

Audio #2
ID : 3
Format : AC-3
Format/Info : Audio Coding 3
Commercial name : Dolby Digital
Codec ID : A_AC3
Duration : 2 h 19 min
Bit rate mode : Constant
Bit rate : 192 kb/s
Channel(s) : 2 channels
Channel layout : L R
Sampling rate : 48.0 kHz
Frame rate : 31.250 FPS (1536 SPF)
Bit depth : 16 bits
Compression mode : Lossy
Stream size : 191 MiB (3%)
Title : MVO - Volia CINE+
Language : Ukrainian
Service kind : Complete Main
Default : No
Forced : No

Audio #3
ID : 4
Format : AC-3
Format/Info : Audio Coding 3
Commercial name : Dolby Digital
Codec ID : A_AC3
Duration : 2 h 19 min
Bit rate mode : Constant
Bit rate : 640 kb/s
Channel(s) : 6 channels
Channel layout : L R C LFE Ls Rs
Sampling rate : 48.0 kHz
Frame rate : 31.250 FPS (1536 SPF)
Bit depth : 16 bits
Compression mode : Lossy
Stream size : 638 MiB (9%)
Language : English
Service kind : Complete Main
Default : No
Forced : No

Text
ID : 5
Format : UTF-8
Codec ID : S_TEXT/UTF8
Codec ID/Info : UTF-8 Plain Text
Duration : 2 h 14 min
Bit rate : 43 b/s
Count of elements : 1359
Stream size : 43.4 KiB (0%)
Language : English
Default : No
Forced : No

Menu
00:00:00.000 : en:Chapter 1
00:09:17.015 : en:Chapter 2
00:18:07.169 : en:Chapter 3
00:28:09.897 : en:Chapter 4
00:37:20.613 : en:Chapter 5
00:44:13.818 : en:Chapter 6
00:54:04.158 : en:Chapter 7
01:04:16.102 : en:Chapter 8
01:13:33.242 : en:Chapter 9
01:22:21.854 : en:Chapter 10
01:29:52.846 : en:Chapter 11
01:36:43.798 : en:Chapter 12
01:43:59.859 : en:Chapter 13
01:54:45.712 : en:Chapter 14
02:07:37.316 : en:Chapter 15
Скріншоти






Подяка: пану Sando7 за доріжки і їх синхронізацію.
Джерело:
Особиста оцінка: 7 - моїй подрузі не сподобалося


Авторський реліз (завантажувати можна без реєстрації)
 Трекер:    Зареєстрований   

Завантажити / скачати фільм українською



відео для новачків



 Зареєстрований:   2019-02-14 13:29
 Розмір:   7.28 GB 
 Оцінка фільму:   6.5/10 (Голосів: 18)
   
2pac123 
Новенький


З нами з: 02.03.17
Востаннє: 09.10.19
Повідомлень: 10

2019-01-11 19:39  
Це професійний переклад?
Anonymous 







2019-01-12 09:25  
2pac123 написано:
Це професійний переклад?

Так

Neolo 
Свій


З нами з: 13.11.10
Востаннє: 12.10.19
Повідомлень: 89

2019-01-12 18:25  
Такої чухні я ще не бачив, аж мізки вивертає.
Nostradamus 
Новенький


З нами з: 17.01.12
Востаннє: 08.10.19
Повідомлень: 2

2019-01-21 01:31  
Neolo
Дуже коректно описано фільм Happy

kotsjkyy 
Новенький


З нами з: 10.02.12
Востаннє: 11.10.19
Повідомлень: 8

2019-01-21 13:22  
чудово. а то я не зкачував від Дніпрофільм. зараз по людськи подивлюсь
ВАВУНЯ 
VIP


З нами з: 30.06.15
Востаннє: 09.10.19
Повідомлень: 265

2019-01-24 14:50  
на другому знімку баба Йуля?! О_о

Kamper 
Свій


З нами з: 21.01.13
Востаннє: 12.10.19
Повідомлень: 70

2019-02-03 23:58  
Наркоманська психоделіка про недотепу, котрий вештається вулицями вигадуючи собі дурниці замість того, щоб влаштуватися на роботу і сплатити борги. Логіка у фільмі відсутня.
Ваш часовий пояс: GMT + 2 Години

Нова тема   Відповісти