Ґотем (Готем) (Сезон 5) / Gotham (Season 5) (2019) 720p

Нові коментарі

Нова тема   Відповісти
Автор Повідомлення
Anonymous 







2019-01-06 01:40  
Ґотем / Готем / Gotham (Сезон 5) (2019)

Альтернативний постер
Ґотем (Готем) (Сезон 5) / Gotham (Season 5) (2019) 720p
Жанр: детектив, кримінальний, драма, трилер
Країна: США



Кінокомпанія: DC Entertainment Primrose, Hill Productions, Warner Bros. Television
Режисер: Денні Кенон
Актори: Бен МакКензі, Шон Пертуі, Робін Тейлор, Сабріна Гевара, Ерін Річардс, Донал Лог та інші.

Сюжет:
Після безперервних розбірок лідером злочинного клану стає Пінгвін. Йому вдалося прибрати до рук дрібних шахраїв і бандитів, а також підкупити і залякати чиновників, що займають керівні посади. Тепер саме Освальд відповідає за порядок шляхом видачі ліцензії на кримінальну діяльність. Відтепер всі ті, хто бажає пограбувати банк або скоїти інший злочин, зобов'язаний звернутися до його помічників за відповідним дозволом. Після отримання офіційного документа жоден поліцейський працівник не має права їм перешкоджати. Це становище бентежить офіцера Гордона, який не трепить свавілля. Чоловік усіма силами бореться проти виданого закону, але інші правозахисники не поспішають вставати на його бік.


Тривалість: 1 серія: ~45 хв.
Кількість серій: ~12
Перелік серій:
01. "Year Zero"
02. "Trespassers"
03. "Penguin, Our Hero"
04. "Ruin"
05. "Pena Dura"
06. "13 Stitches"
07. "Ace Chemicals"
08. "I Am Bane"
09. "The Trial of James Gordon"
10. "I Am Bane"
11. "They Did What?"
12. "The Beginning..."
Якість: 720p

Відео:
кодек:
розмір кадру: 1280x720
бітрейт: 3200 кбіт/сек.
контейнер:

Аудіо:
мова: українська,
озвучення: багатоголосе закадрове
кодек: 5.1
бітрейт: ~1200 кбіт/сек.

Джерело перекладу та озвучення: AniUA
Info
General
Unique ID : 174475840033816578819690794862062686415 (0x8342D311BB7C776C79BD7A20A01550CF)
Complete name : E:\Films\Gotham (Season 05)\Gotham_S05E01_720p.
Format :
Format version : Version 4 / Version 2
File size : 1.35 GiB
Duration : 44 min 18 s
Overall bit rate mode : Variable
Overall bit rate : 4 347 kb/s
Encoded date : UTC 2019-01-05 22:14:34
Writing application : v26.0.0 ('In The Game') 64-bit
Writing library : libebml v1.3.6 + v1.4.9

Video
ID : 1
Format : AVC
Format/Info : Advanced Video Codec
Format profile : [email protected]
Format settings : CABAC / 1 Ref Frames
Format settings, CABAC : Yes
Format settings, ReFrames : 1 frame
Format settings, GOP : M=1, N=25
Codec ID : V_MPEG4/ISO/AVC
Duration : 44 min 18 s
Bit rate mode : Constant
Bit rate : 3 200 kb/s
Width : 1 280 pixels
Height : 720 pixels
Display aspect ratio : 16:9
Frame rate mode : Constant
Frame rate : 23.976 (24000/1001) FPS
Color space : YUV
Chroma subsampling : 4:2:0
Bit depth : 8 bits
Scan type : Progressive
Bits/(Pixel*Frame) : 0.145
Stream size : 1 011 MiB (73%)
Title : Gotham - 01
Language : English
Default : Yes
Forced : Yes

Audio
ID : 2
Format :
Format/Info : Free Lossless Audio Codec
Codec ID : A_FLAC
Duration : 44 min 18 s
Bit rate mode : Variable
Bit rate : 1 156 kb/s
Channel(s) : 6 channels
Channel layout : L R C LFE Ls Rs
Sampling rate : 48.0 kHz
Frame rate : 10.417 FPS (4608 SPF)
Bit depth : 24 bits
Compression mode : Lossless
Delay relative to video : -3 ms
Stream size : 366 MiB (27%)
Title : AniUA MVO
Writing library : Lavf58.12.100
Language : Ukrainian
Default : Yes
Forced : Yes
Скріншоти






!!! УВАГА !!! В релізі присутня аудіо та відеореклама



Авторський реліз (завантажувати можна без реєстрації)
 Трекер:    Зареєстрований   

Завантажити / скачати серіал українською



відео для новачків



 Зареєстрований:   2019-04-27 22:35
 Розмір:   16.34 GB 
 Оцінка серіалу:   8.5/10 (Голосів: 29)
   
Anonymous 







2019-01-13 00:57  
Додано 02 серію.

hottabich23 
Частий відвідувач


З нами з: 26.06.10
Востаннє: 14.10.19
Повідомлень: 38

2019-01-13 11:11  
Anonymous
В назві підправте:
Цитата:
Ґотем / Готем / Gotham (Серії 01 з ~12) (Сезон 5) (2019) 720p

Дякую!

Anonymous 







2019-01-20 15:58  
Додано 03 серію.

jack 
Поважний учасник


З нами з: 11.03.11
Востаннє: 08.10.19
Повідомлень: 190

2019-01-20 23:41  
Маю відчуття, що в описі сюжет початку 4-го сезону. В 5-му сезоні за основу взято арку "Нічийна земля."

Молодці, що взялись за озвучення.

Досить крутий серіал. Правда, в третьому і четвертому сезоні вони, як на мене, забагато всього намішали.

Anonymous 







2019-01-27 00:27  
Додано 04 серію.

Roman7Fedorak 
Свій


З нами з: 30.03.12
Востаннє: 15.10.19
Повідомлень: 105

2019-01-27 13:08  
еебоойй качаю Happy
zoomymba2012 
VIP


З нами з: 08.01.15
Востаннє: 15.10.19
Повідомлень: 632

2019-01-31 14:14  
Rolleyes (4)

Anonymous 







2019-02-03 00:19  
Додано 05 серію.

Дякуємо за постер)

Anonymous 







2019-02-16 22:51  
Додано 06 серію.

Anonymous 







2019-02-23 20:45  
Додано 07 серію.

Anonymous 







2019-03-03 15:31  
Додано 08 серію.

Anonymous 







2019-03-10 14:28  
Додано 09 серію.

don pedro 
Попереджень: 1
Попереджень: 1 


З нами з: 29.06.11
Востаннє: 15.10.19
Повідомлень: 14597

2019-03-10 23:22  
"Готем" в останніх сезонах - квінтесенція усього безглуздя, яким часом сповнені комікси. Серіал тепер навіть Пінгвін не в змозі порятувати. На щастя, це останній сезон "Готема". Хоча, мушу визнати, що до "Флеша" йому за рівнем дурощів ще далеко.
hofter 
Новенький


З нами з: 25.02.15
Востаннє: 27.08.19
Повідомлень: 16

2019-03-13 22:03  
Озвучення як, нормальне? Дивитися можна? І чи можете просто субтитри додати, аби можна було в оригіналі з українськими субтитрами глянути? Це було б дуже-дуже круто. Наперед дякую.
Shukh 
Поважний учасник


З нами з: 20.08.11
Востаннє: 11.10.19
Повідомлень: 223

2019-03-14 14:45  
плюсую щодо субтитрів.

а хтось в курсі щодо решти сезонів? чи варто чекати їх озвучки в найближчому майбутньому?

feel_ton 
Новенький


З нами з: 22.04.09
Востаннє: 11.10.19
Повідомлень: 5

2019-03-16 19:04  
hofter
Не професіонал, але до озвучення питань немає.

Додано через 10 хвилин 29 секунд:

Shukh
Цей сезон фінальний.
Дата вихода решти серій сезону в оригіналі - наприклад, тут: https://www.denofgeek.com/us/tv/gotham/271675/gotham-season-5-release-date-episodes-villains-story-news

Anonymous 







2019-03-24 01:02  
Додано 10 серію.

hofter 
Новенький


З нами з: 25.02.15
Востаннє: 27.08.19
Повідомлень: 16

2019-03-26 22:57  
Оновіть, будь ласка, розділ "Перелік серій" в описі. Адже вже вийшла 10 серія.
І що щодо субтитрів? Чи варто їх очікувати?

Sano4ek 
Новенький


З нами з: 08.04.14
Востаннє: 14.10.19
Повідомлень: 1

2019-04-17 15:42  
А нема усіх сезонів?
Anonymous 







2019-04-21 12:37  
Додано 11 серію.

Anonymous 







2019-04-27 22:36  
Додано 12 серію. Реліз завершено.

Roman7Fedorak 
Свій


З нами з: 30.03.12
Востаннє: 15.10.19
Повідомлень: 105

2019-05-02 11:26  
ДЯКУЄМО Happy
Ваш часовий пояс: GMT + 2 Години

Нова тема   Відповісти