Пташиний короб / Bird Box (2018) 720p Ukr/Eng | Sub Eng

Нові коментарі

Нова тема   Відповісти
Автор Повідомлення
Anonymous 







2019-01-06 00:26  
Пташиний короб / Bird Box (2018) 720p Ukr/Eng | Sub Eng



Жанр: драма, фантастика, трилер, жахи
Країна: США



Кінокомпанія: Bluegrass Films, Chris Morgan Production, Universal Pictures
Режисер: Сюзанн Бір
Актори: Сандра Баллок, Сара Полсон, Роза Салазар, Джон Малкович, Давід Дастмалчян, Парміндер Награ, Машин Ган Келлі, Джекі Вівер, Ліл Рел Хаурі, Треванте Роудс

Сюжет:
Атмосферний науково-фантастичний хоррор про паранормальну епідемію психічних розладів, що може призвести до знищення людства.За сюжетом, невідома науці пошесть психічних хвороб поставила людство на межу виживання. Більшість людей перетворюється на божевільних, що під час спалахів агресії намагаються покінчити життя самогубством. Щоб врятувати власне життя і життя своїх дітей, мати-одиначка Мелорі пускається в небезпечну подорож. Щоб не збожеволіти, в цьому світі доводиться подорожувати з зав'язаними очима.


Реліз без реклами


Тривалість: 02:03:48
Якість: 720p
Відео:
кодек:
розмір кадру: 1280x532
бітрейт: 2964 кб/с

Аудіо # 1:
мова: українська
переклад: багатоголосий закадровий | DniproFilm
кодек: 5.1
бітрейт: 384 кб/с

Аудіо # 2:
мова: англійська
переклад: оригінал
кодек: E-AC-3 JOC 5.1
бітрейт: 448 кб/с

Субтитри:
мова: англійська
тип: програмні (м'які)
формат: *.srt
Info
Complete name : H:\Фільми\Bird.Box.2018..720p.[Ukr.Eng.Sub.Eng][Hurtom].
Format :
Format version : Version 4 / Version 2
File size : 3.34 GiB
Duration : 2 h 3 min
Overall bit rate : 3 862 kb/s
Encoded date : UTC 2019-01-10 01:24:32
Writing application : v27.0.0 ('Metropolis') 64-bit
Writing library : libebml v1.3.6 + v1.4.9

Video
ID : 1
Format : AVC
Format/Info : Advanced Video Codec
Format profile : [email protected]
Format settings, CABAC : Yes
Format settings, RefFrames : 9 frames
Codec ID : V_MPEG4/ISO/AVC
Duration : 2 h 3 min
Bit rate : 2 964 kb/s
Width : 1 280 pixels
Height : 532 pixels
Display aspect ratio : 2.40:1
Frame rate mode : Constant
Frame rate : 24.000 FPS
Color space : YUV
Chroma subsampling : 4:2:0
Bit depth : 8 bits
Scan type : Progressive
Bits/(Pixel*Frame) : 0.181
Stream size : 2.56 GiB (77%)
Writing library : core 157 r2932+2 (master: 303c484 / tmod: 1b88d0a) [X86_64]
Encoding settings : cabac=1 / ref=9 / deblock=1:-3:-3 / analyse=0x3:0x133 / me=umh / subme=10 / psy=1 / psy_rd=1.05:0.15 / mixed_ref=1 / me_range=48 / chroma_me=1 / trellis=2 / 8x8dct=1 / cqm=0 / deadzone=6,6 / fast_pskip=0 / chroma_qp_offset=-3 / threads=17 / lookahead_threads=2 / sliced_threads=0 / nr=0 / decimate=0 / interlaced=0 / bluray_compat=0 / constrained_intra=0 / bframes=9 / b_pyramid=2 / b_adapt=2 / b_bias=0 / direct=3 / weightb=1 / open_gop=0 / weightp=2 / keyint=250 / keyint_min=24 / scenecut=40 / intra_refresh=0 / rc_lookahead=60 / rc=crf / mbtree=0 / crf=18.0 / qcomp=0.70 / qpmin=0 / qpmax=69 / qpstep=4 / vbv_maxrate=62500 / vbv_bufsize=78125 / crf_max=0.0 / nal_hrd=none / filler=0 / ip_ratio=1.25 / pb_ratio=1.20 / aq=3:0.80
Language : English
Default : Yes
Forced : No

Audio #1
ID : 2
Format : AC-3
Format/Info : Audio Coding 3
Format settings, Endianness : Big
Codec ID : A_AC3
Duration : 2 h 3 min
Bit rate mode : Constant
Bit rate : 384 kb/s
Channel(s) : 6 channels
Channel positions : Front: L C R, Side: L R, LFE
Sampling rate : 48.0 kHz
Frame rate : 31.250 FPS (1536 SPF)
Bit depth : 16 bits
Compression mode : Lossy
Stream size : 397 MiB (12%)
Title : MVO - DniproFilm
Language : Ukrainian
Service kind : Complete Main
Default : Yes
Forced : No

Audio #2
ID : 3
Format : E-AC-3
Format/Info : Enhanced Audio Coding 3
Format profile : E-AC-3+Atmos / E-AC-3
Format settings, Endianness : Big
Codec ID : A_EAC3
Duration : 2 h 3 min
Bit rate mode : Constant
Bit rate : 448 kb/s
Channel(s) : 15 objects / 6 channels
Channel positions : 15 objects / Front: L C R, Side: L R, LFE
Sampling rate : 48.0 kHz
Frame rate : 187.500 FPS (256 SPF)
Compression mode : Lossy
Stream size : 397 MiB (12%)
Language : English
Service kind : Complete Main
Default : No
Forced : No

Text
ID : 4
Format : UTF-8
Codec ID : S_TEXT/UTF8
Codec ID/Info : UTF-8 Plain Text
Duration : 1 h 56 min
Bit rate : 53 b/s
Count of elements : 1454
Stream size : 45.5 KiB (0%)
Title : English
Language : English
Default : No
Forced : No
Скріншоти





Джерело:


Авторський реліз (завантажувати можна без реєстрації)
 Трекер:    Зареєстрований   

Завантажити / скачати фільм українською



відео для новачків



 Зареєстрований:   2019-01-10 01:41
 Розмір:   3.28 GB 
 Оцінка фільму:   7.3/10 (Голосів: 24)
   
Інші релізи
Дагні 
Новенький


З нами з: 06.01.19
Востаннє: 23.01.19
Повідомлень: 1

2019-01-08 21:59  
В цьому релізі чути ехо англійської доріжки, що робить перегляд не зовсім приємним
Anоnymous 
Попереджень: 2
Попереджень: 2 


З нами з: 25.08.18
Востаннє: 24.01.19
Повідомлень: 459

2019-01-09 20:25  
Дагні
яке ехо?

Anonymous 







2019-01-10 01:42  
Фікс аудіо-доріжки, тепер без відлуння.
Перезавантажте торент

knightrider 
Новенький


З нами з: 04.11.12
Востаннє: 23.01.19
Повідомлень: 6

2019-01-10 10:53  
Рейтинг у фільма явно завищений. Нудно, затягнуто, з купою непотрібних сопливих діалогів. Ідеї сюжету насмикані з інших подібних фільмів.
Segoy 
Новенький


З нами з: 19.11.14
Востаннє: 12.01.19
Повідомлень: 5

2019-01-10 18:43  
Не рекомендую до перегляду.
Targitay 
Новенький


З нами з: 16.05.11
Востаннє: 24.01.19
Повідомлень: 17

2019-01-10 22:55  
а мені фільм сподобався, хоч і місцями можливо банально! але, що цікаво, от є ціла купа фільмів з таким +/- сюжетом і їх дивитися не цікаво, все передбачувано і ніякої напруги! а тут - не знаю - чи то гра акторів, чи то якісний монтаж, чи то музика... короче -я навіть вирішив прокоментувати ))) я думаю, що 7/10 це справедливо. і подивитися варто
Ваш часовий пояс: GMT + 2 Години

Нова тема   Відповісти