Лютер (Сезон 5) / Luther (Season 5) (2019)

Нові коментарі

Нова тема   Відповісти
Останній раз роздавалося blackhawkua (2019-07-17)
Автор Повідомлення
DniproFilm 
VIP


З нами з: 10.10.18
Востаннє: 13.07.19
Повідомлень: 251

2019-01-05 20:17  
Лютер (Сезон 5) / Luther (Season 5) (2019)

Лютер (Сезон 5) / Luther (Season 5) (2019)


Жанр: детектив, драма, кримінал, трилер
Країна: Великобританія


Кінокомпанія / телеканал: BBC Studios, BBC Television Centre

Режисер: Ніл Кросс
Актори/ролі озвучують: Ідріс Ельба, Рут Вілсон, Воррен Браун, Дермот Краулі, Майкл Смайлі, Ніккі Амука-Берд, Сієнна Гіллорі, Стівен Макінтош, Індіра Варма, Девід О'Хара та інші

Сюжет:
Відмінний кримінально-драматичний трилер про видатного детектива Джона Лютера, який готовий на все заради досягнення мети.
Головний герой - детектив департаменту поліції Джон Лютер. В нього не складаються відносини з родиною, але завдяки цьому є час на розкриття кривавих злочинів. І в своєму ремеслі він один з найкращих. Успішність Лютера полягає у його нестандартних методах, які він використовує для викриття серійних вбивць. Ці методи не завжди законні, але завжди ефективні…


Тривалість: 1 серія: ~ 60 хв. (цілком серій: 4)
Перелік серій

1. Episode 5.1
2. Episode 5.2
3. Episode 5.3
4. Episode 5.4
Якість:
Відео:
кодек:
розмір кадру: 720x400
бітрейт: ~1800 кб/с

Аудіо # 1:
мова: українська
переклад: багатоголосий закадровий
кодек: 5.1
бітрейт: 384 кб/с

Джерело озвучення:
DniproFilm
Info

Video
ID : 0
Format : MPEG-4 Visual
Format profile : Advanced [email protected]
Format settings : BVOP2
Format settings, BVOP : 2
Format settings, QPel : No
Format settings, GMC : No warppoints
Format settings, Matrix : Default (H.263)
Muxing mode : Packed bitstream
Codec ID :
Codec ID/Hint :
Duration : 58 min 7 s
Bit rate : 1 633 kb/s
Width : 720 pixels
Height : 400 pixels
Display aspect ratio : 16:9
Frame rate : 25.000 FPS
Color space : YUV
Chroma subsampling : 4:2:0
Bit depth : 8 bits
Scan type : Progressive
Compression mode : Lossy
Bits/(Pixel*Frame) : 0.227
Stream size : 679 MiB (81%)
Writing library : 67

Audio
ID : 1
Format : AC-3
Format/Info : Audio Coding 3
Commercial name : Dolby Digital
Codec ID : 2000
Duration : 58 min 7 s
Bit rate mode : Constant
Bit rate : 384 kb/s
Channel(s) : 6 channels
Channel positions : Front: L C R, Side: L R, LFE
Sampling rate : 48.0 kHz
Frame rate : 31.250 FPS (1536 SPF)
Bit depth : 16 bits
Compression mode : Lossy
Stream size : 160 MiB (19%)
Alignment : Aligned on interleaves
Interleave, duration : 40 ms (1.00 video frame)
Interleave, preload duratio : 512 ms
Service kind : Complete Main
Скріншоти


Увага, присутня відео та аудіореклама.


Джерело: DniproFilm


Авторський реліз (завантажувати можна без реєстрації)
 Трекер:    Зареєстрований   

Завантажити / скачати серіал українською



відео для новачків



 Зареєстрований:   2019-01-09 15:30
 Розмір:   3.25 GB 
 Оцінка серіалу:   9.4/10 (Голосів: 18)
   
ced 
Свій


З нами з: 11.02.17
Востаннє: 16.07.19
Повідомлень: 95

2019-01-06 03:40  
DniproFilm, дякую за оперативність!
Сподіваюсь всі чотири серії цього сезона будуть цікавими, перша не підвела Wink (1)

бронн 
Новенький


З нами з: 21.10.16
Востаннє: 16.07.19
Повідомлень: 23

2019-01-06 16:10  
5-ий сезон! Чудово!
Дякую!

exwest1 
Частий відвідувач


З нами з: 07.01.11
Востаннє: 14.07.19
Повідомлень: 25

2019-01-07 21:48  
Дякую
DniproFilm 
VIP


З нами з: 10.10.18
Востаннє: 13.07.19
Повідомлень: 251

2019-01-09 15:31  
УВАГА! РЕЛІЗ ОНОВЛЕНО! (09.01.2019) Додано 2-4 серії (фінал сезону).

exwest1 
Частий відвідувач


З нами з: 07.01.11
Востаннє: 14.07.19
Повідомлень: 25

2019-01-09 22:23  
Крутий сезон, зайшло
Ваш часовий пояс: GMT + 2 Години

Нова тема   Відповісти