Лютер (Сезон 5) / Luther (Season 5) (2019) 1080p Ukr/Eng

Нові коментарі

Нова тема   Відповісти
Автор Повідомлення
DniproFilm 
VIP


З нами з: 10.10.18
Востаннє: 24.01.19
Повідомлень: 279

2019-01-05 19:17  
Лютер (Сезон 5) / Luther (Season 5) (2019) 1080p Ukr/Eng

Лютер (Сезон 5) / Luther (Season 5) (2019) 1080p Ukr/Eng


Жанр: детектив, драма, кримінальний, трилер
Країна: Велика Британія



Кінокомпанія / телеканал: BBC Studios, BBC Television Centre
Режисер: Ніл Кросс
Актори/ролі озвучують: Ідріс Ельба, Рут Вілсон, Воррен Браун, Дермот Краулі, Майкл Смайлі, Ніккі Амука-Берд, Сієнна Гіллорі, Стівен Макінтош, Індіра Варма, Девід О'Хара та інші

Сюжет:
Відмінний кримінально-драматичний трилер про видатного детектива Джона Лютера, який готовий на все заради досягнення мети.
Головний герой - детектив департаменту поліції Джон Лютер. В нього не складаються відносини з родиною, але завдяки цьому є час на розкриття кривавих злочинів. І в своєму ремеслі він один з найкращих. Успішність Лютера полягає у його нестандартних методах, які він використовує для викриття серійних вбивць. Ці методи не завжди законні, але завжди ефективні…


Тривалість: 1 серія: ~ 60 хв. (цілком серій: 4)
Перелік серій

1. Episode 5.1
2. Episode 5.2
3. Episode 5.3
4. Episode 5.4
Якість: 1080p
Відео:
кодек:
розмір кадру: 1920x1080
бітрейт: ~7000 кб/с

Аудіо # 1:
мова: українська
переклад: багатоголосий закадровий
кодек: 5.1
бітрейт: 384 кб/с

Аудіо # 2:
мова: англійська
переклад: оригінал
кодек: 5.1
бітрейт: 640 кб/с

Джерело озвучення:
DniproFilm
Info

Video
ID : 1
Format : AVC
Format/Info : Advanced Video Codec
Format profile : [email protected]
Format settings : CABAC / 4 Ref Frames
Format settings, CABAC : Yes
Format settings, ReFrames : 4 frames
Codec ID : V_MPEG4/ISO/AVC
Duration : 58 min 7 s
Bit rate : 6 947 kb/s
Width : 1 920 pixels
Height : 1 080 pixels
Display aspect ratio : 16:9
Frame rate mode : Constant
Frame rate : 25.000 FPS
Standard : PAL
Color space : YUV
Chroma subsampling : 4:2:0
Bit depth : 8 bits
Scan type : Progressive
Bits/(Pixel*Frame) : 0.134
Stream size : 2.82 GiB (87%)
Language : English
Default : Yes
Forced : No
Color range : Limited
Color primaries : BT.709
Transfer characteristics : BT.709
Matrix coefficients : BT.709

Audio #1
ID : 2
Format : AC-3
Format/Info : Audio Coding 3
Commercial name : Dolby Digital
Codec ID : A_AC3
Duration : 58 min 7 s
Bit rate mode : Constant
Bit rate : 384 kb/s
Channel(s) : 6 channels
Channel positions : Front: L C R, Side: L R, LFE
Sampling rate : 48.0 kHz
Frame rate : 31.250 FPS (1536 SPF)
Bit depth : 16 bits
Compression mode : Lossy
Stream size : 160 MiB (5%)
Title : DniproFilm
Language : Ukrainian
Service kind : Complete Main
Default : Yes
Forced : No
Скріншоти


Увага, присутня відео та аудіореклама.


Джерело: DniproFilm



Авторський реліз (завантажувати можна без реєстрації)
 Трекер:    Зареєстрований   

Завантажити / скачати серіал українською



відео для новачків



 Зареєстрований:   2019-01-09 14:30
 Розмір:   12.73 GB 
 Оцінка серіалу:   7.8/10 (Голосів: 4)
   
Nikson 
VIP


З нами з: 12.01.10
Востаннє: 24.01.19
Повідомлень: 694

2019-01-05 19:24  
DniproFilm
Дякую.

Влад Гук 
Частий відвідувач


З нами з: 06.07.13
Востаннє: 23.01.19
Повідомлень: 37

2019-01-05 20:34  
Робили ви б ще субтитри українською, ціни б вам не було)
DniproFilm 
VIP


З нами з: 10.10.18
Востаннє: 24.01.19
Повідомлень: 279

2019-01-09 14:31  
УВАГА! РЕЛІЗ ОНОВЛЕНО! (09.01.2019) Додано 2-4 серії (фінал сезону).

maydanec 
Новенький


З нами з: 11.06.12
Востаннє: 23.01.19
Повідомлень: 2

2019-01-09 21:27  
Друзі, а що робити, якщо телик формат не бачить? Є якісь лайфгаки?
FrankPazura 
Новенький


З нами з: 11.01.10
Востаннє: 23.01.19
Повідомлень: 2

2019-01-17 00:48  
Дуже дякую, чудова озвучка чудового серіалу)
Ваш часовий пояс: GMT + 2 Години

Нова тема   Відповісти