Нація убивць / Assassination Nation (2018) 1080p H.265 Ukr/Eng | Sub Eng

Нові коментарі

Нова тема   Відповісти
Автор Повідомлення
Anonymous 







2019-01-05 20:09  
Нація убивць / Assassination Nation (2018) 1080p H.265 Ukr/Eng | Sub Eng

Нація убивць / Assassination Nation (2018) 1080p H.265 Ukr/Eng | Sub Eng


Жанр: драма, комедія, кримінальний, трилер
Країна: США
Кінокомпанія: BRON Studios, Foxtail Entertainment, Phantom Four
Режисер: Сем Левінсон
Актори: Одесса Янґ, С'юкі Вотерхаус, Гарі Неф, Ґабріель Олівія Мірвіль, Белла Торн, Колман Домінго ,Білл Скарсгард ,Джоел МакХейл, Аніка Ноні Роуз, Коді Крістіан та інші

Сюжет:
На що здатні жителі тихого містечка, якщо їх зачепити за живе? Більшість з нас ніколи про це не дізнається, а от жителям Салема випала така нагода. Головні героїні фільму – це чотири шкільні подруги. Вони веселяться на повну, відриваючись на вечірках. Як і більшість одноліток, фотографують усе, що бачать та викладають це у соцмережі. На відміну від старих закомплексованих дядечок та тітоньок, які дуже хвилюються за свою репутацію. Містом почала ширитися інформація: один за одним зламані усі переписки та фото кількох городян. І їм було що приховувати, тож ганьби не уникнути. Так їм і треба – констатували дівчата. Радіти цьому лишилось не довго – у мережу виставлені приватні дані майже на усіх жителів Салема. Місто захлинається від люті та масових вбивств. Більшість постраждалих звинувачує у хакерстві дівчат. Миритися з таким наклепом вони не збираються.


Тривалість: 01:47:59
Якість:
Відео:
кодек: H.265 (HEVC)
розмір кадру: 1920 x 800
бітрейт: 5821 кб/с
бітова глибина: 10 біт
Увага! Перед завантаженням переконайтесь, що ваш пристрій відтворення (та/або ПЗ) підтримує H.265 (HEVC)

Аудіо # 1:
мова: українська
переклад: професійний дубльований | студія ААА-sound
кодек: AC-3 2.0
бітрейт: 192 кб/с
Інформація про дубляж
Перекладач: Віталій Жук
Редактор: Юлія Когут
Режисер дубляжу та звукорежисер перезапису: Олександр Єфімов
Ролі дублювали: Дарина Муращенко, Павло Скороходько, Катерина Буцька, Олександр Солодкий, Ганна Чиж, Михайло Тишин, Олена Узлюк, Дмитро Гаврилов, Іван Розін, Юлія Перенчук, Євген Пашин, Юлія Шаповал, Михайло Кришталь, Арсен Шавлюк, Ярослав Чорненький та інші.

Фільм дубльовано студією ААА-sound у 2018 році на замовлення компанії UFD.
Аудіо # 2:
мова: англійська
переклад: оригінал
кодек: 5.1
бітрейт: 1510 кб/с

Субтитри # 1:
мова: англійська (Full),
тип: програмні (м'які)
формат: *.srt


Info
Код:
General
Unique ID                                : 202890474716730302649269096738637603819 (0x98A348B8BB6F8BBE2B93C20353F9E3EB)
Complete name                            : G:\Video\Assassination Nation (2018) 1080p H.265 [UKR_ENG].
Format                                   :
Format version                           : Version 4 / Version 2
File size                                : 5.68 GiB
Duration                                 : 1 h 47 min
Overall bit rate                         : 7 525 kb/s
Movie name                               : Assassination Nation (2018)
Encoded date                             : UTC 2019-01-05 16:57:59
Writing application                      : v20.0.0 ('I Am The Sun') 32-bit
Writing library                          : libebml v1.3.5 + v1.4.8
Cover                                    : Yes
Attachments                              : Cover.jpg

Video
ID                                       : 1
Format                                   : HEVC
Format/Info                              : High Efficiency Video Coding
Format profile                           : Main [email protected]@High
Codec ID                                 : V_MPEGH/ISO/HEVC
Duration                                 : 1 h 47 min
Bit rate                                 : 5 821 kb/s
Width                                    : 1 920 pixels
Height                                   : 800 pixels
Display aspect ratio                     : 2.40:1
Frame rate mode                          : Constant
Frame rate                               : 23.976 (24000/1001) FPS
Color space                              : YUV
Chroma subsampling                       : 4:2:0
Bit depth                                : 10 bits
Bits/(Pixel*Frame)                       : 0.158
Stream size                              : 4.39 GiB (77%)
Title                                    : Assassination Nation (2018)
Writing library                          : x265 2.9+2-7e978ed93d60:[Windows][GCC 8.2.0][64 bit] 10bit
Encoding settings                        : cpuid=1111039 / frame-threads=4 / numa-pools=14,14 / wpp / pmode / no-pme / no-psnr / no-ssim / log-level=2 / input-csp=1 / input-res=1920x800 / interlace=0 / total-frames=155353 / level-idc=41 / high-tier=1 / uhd-bd=0 / ref=3 / no-allow-non-conformance / no-repeat-headers / annexb / no-aud / no-hrd / info / hash=0 / no-temporal-layers / open-gop / min-keyint=23 / keyint=240 / gop-lookahead=0 / bframes=4 / b-adapt=2 / b-pyramid / bframe-bias=0 / rc-lookahead=20 / lookahead-slices=5 / scenecut=40 / radl=0 / no-intra-refresh / ctu=32 / min-cu-size=8 / no-rect / no-amp / max-tu-size=32 / tu-inter-depth=1 / tu-intra-depth=1 / limit-tu=0 / rdoq-level=0 / dynamic-rd=0.00 / no-ssim-rd / signhide / no-tskip / nr-intra=0 / nr-inter=0 / no-constrained-intra / no-strong-intra-smoothing / max-merge=2 / limit-refs=0 / no-limit-modes / me=2 / subme=5 / merange=32 / temporal-mvp / weightp / no-weightb / no-analyze-src-pics / deblock=-3:-3 / no-sao / no-sao-non-deblock / rd=3 / no-early-skip / rskip / no-fast-intra / no-tskip-fast / no-cu-lossless / no-b-intra / no-splitrd-skip / rdpenalty=0 / psy-rd=2.00 / psy-rdoq=0.00 / no-rd-refine / no-lossless / cbqpoffs=0 / crqpoffs=0 / rc=crf / crf=18.0 / qcomp=0.60 / qpstep=4 / stats-write=0 / stats-read=0 / vbv-maxrate=50000 / vbv-bufsize=50000 / vbv-init=0.9 / crf-max=0.0 / crf-min=0.0 / ipratio=1.40 / pbratio=1.30 / aq-mode=1 / aq-strength=1.00 / cutree / zone-count=0 / no-strict-cbr / qg-size=32 / no-rc-grain / qpmax=69 / qpmin=0 / no-const-vbv / sar=0 / overscan=0 / videoformat=5 / range=0 / colorprim=1 / transfer=1 / colormatrix=1 / chromaloc=0 / display-window=0 / max-cll=0,0 / min-luma=0 / max-luma=1023 / log2-max-poc-lsb=8 / vui-timing-info / vui-hrd-info / slices=1 / no-opt-qp-pps / no-opt-ref-list-length-pps / no-multi-pass-opt-rps / scenecut-bias=0.05 / no-opt-cu-delta-qp / no-aq-motion / no-hdr / no-hdr-opt / no-dhdr10-opt / no-idr-recovery-sei / analysis-reuse-level=5 / scale-factor=0 / refine-intra=0 / refine-inter=0 / refine-mv=0 / no-limit-sao / ctu-info=0 / no-lowpass-dct / refine-mv-type=0 / copy-pic=1 / max-ausize-factor=1.0 / no-dynamic-refine / no-single-sei
Language                                 : English
Default                                  : Yes
Forced                                   : No
Color range                              : Limited
Color primaries                          : BT.709
Transfer characteristics                 : BT.709
Matrix coefficients                      : BT.709

Audio #1
ID                                       : 2
Format                                   : AC-3
Format/Info                              : Audio Coding 3
Codec ID                                 : A_AC3
Duration                                 : 1 h 47 min
Bit rate mode                            : Constant
Bit rate                                 : 192 kb/s
Channel(s)                               : 2 channels
Channel positions                        : Front: L R
Sampling rate                            : 48.0 kHz
Frame rate                               : 31.250 FPS (1536 SPF)
Bit depth                                : 16 bits
Compression mode                         : Lossy
Stream size                              : 148 MiB (3%)
Title                                    : ПД - AAA Sound
Language                                 : Ukrainian
Service kind                             : Complete Main
Default                                  : Yes
Forced                                   : Yes

Audio #2
ID                                       : 3
Format                                   :
Format/Info                              : Digital Theater Systems
Codec ID                                 : A_DTS
Duration                                 : 1 h 47 min
Bit rate mode                            : Constant
Bit rate                                 : 1 509 kb/s
Channel(s)                               : 6 channels
Channel positions                        : Front: L C R, Side: L R, LFE
Sampling rate                            : 48.0 kHz
Frame rate                               : 93.750 FPS (512 SPF)
Bit depth                                : 24 bits
Compression mode                         : Lossy
Stream size                              : 1.14 GiB (20%)
Title                                    : Original
Language                                 : English
Default                                  : No
Forced                                   : No

Text
ID                                       : 4
Format                                   : UTF-8
Codec ID                                 : S_TEXT/UTF8
Codec ID/Info                            : UTF-8 Plain Text
Duration                                 : 1 h 38 min
Bit rate                                 : 57 b/s
Count of elements                        : 1283
Stream size                              : 41.5 KiB (0%)
Title                                    : Full
Language                                 : English
Default                                  : Yes
Forced                                   : No

Menu
00:00:00.000                             : :Chapter 01
00:22:06.366                             : :Chapter 02
00:43:51.712                             : :Chapter 03
01:01:11.334                             : :Chapter 04
01:16:31.169                             : :Chapter 05
01:21:47.694                             : :Chapter 06
01:28:27.135                             : :Chapter 07
01:39:32.883                             : :Chapter 08
Світлини




Джерело:
Особиста оцінка: 0 - не дивився


>>> Усі мої релізи <<<



 Трекер:    Зареєстрований   

Завантажити / скачати фільм українською



відео для новачків



 Зареєстрований:   2019-01-05 20:09
 Розмір:   5.68 GB 
 Оцінка фільму:   4/10 (Голосів: 6)
   
Інші релізи
Wowatorrent 
Поважний учасник


З нами з: 24.03.16
Востаннє: 15.10.19
Повідомлень: 167

2019-01-06 18:22  
Як тут зі звуком? Бо в оновленому авц все ще лайн.
Anonymous 







2019-01-06 18:31  
Wowatorrent
Доріжку брав з цього релізу - https://toloka.to/t97214 . Ніби якісна (вмикав моментами), хоча може бути і лайн (якісний).

Wowatorrent 
Поважний учасник


З нами з: 24.03.16
Востаннє: 15.10.19
Повідомлень: 167

2019-01-06 18:38  
-Star-Lord-
На всіх релізах вказаний різний звук. На лайн стерео, то напевно він і є. Бо на слух він більш менш нормальний.

tgb 
Новенький


З нами з: 31.08.12
Востаннє: 13.10.19
Повідомлень: 4

2019-02-02 19:01  
лайно
Ваш часовий пояс: GMT + 2 Години

Нова тема   Відповісти