Ті, що летять крізь ніч (Сезон 1) / Nightflyers (Season 1) (2018) 1080p Ukr/Eng | sub Eng

Нові коментарі

Нова тема   Відповісти
Автор Повідомлення
Anonymous 







2019-01-05 18:18  
Ті, що летять крізь ніч (Сезон 1) / Nightflyers (Season 1) (2018) 1080p Ukr/Eng | sub Eng

Ті, що летять крізь ніч (Сезон 1) / Nightflyers (Season 1) (2018) 1080p Ukr/Eng | sub Eng


Жанр: фантастика, жахи
Країна: США



Кінокомпанія: Gaeta, Rosenzweig Films, Hypnotic, Netflix
Режисер: Джефф Бюлер (Jeff Buhler), Девід Шнейдерман (David Schneiderman)
Актори: Джоді Тернер-Сміт (Jodie Turner-Smith), Гретхен Мол (Gretchen Mol ), Овен Мекен (Eoin Macken), Девід Аджала (David Ajala), Енгус Семпсон (Angus Sampson), Сем Страйк (Sam Strike), Майя Ешет (Maya Eshet), Брайан Ф. О'Бірн (Brían F. O'Byrne), Філліп Різ (Phillip Rhys) та інші

Сюжет:
В центрі сюжету - історія групи астронавтів-дослідників, які в 2093 році відправляються в міжгалактичну експедицію, мета якої - контакт із позаземними цивілізаціями. Дорогою вони перестають вірити в успіх сумнівного задуму, починають сваритись поміж собою, а головне - розуміють, що на борту корабля є ще хтось. Щогодини подорож стає все складнішою та небезпечнішою для астронавтів…


Тривалість: 1 серія: 40-58 хв. (цілком серій: 10)
Перелік серій
01) All That We Left Behind
02) Torches and Pitchforks
03) The Abyss Stares Back
04) White Rabbit
05) Greywing
06) The Sacred Gift
07) Transmission
08) Rebirth
09) Icarus
10) All That We Have Found
Якість: [Amazon]
Відео:
кодек:
розмір кадру: 1980 х 1080
бітрейт: 2.5 - 5.5 мб/с

Аудіо # 1:
мова: українська
переклад: багатоголосий закадровий | DniproFilm
кодек: 5.1
бітрейт: 384 кб/с

Аудіо # 2:
мова: англійська
переклад: оригінал
кодек: E- 5.1
бітрейт: 640 кб/с

Субтитри:
мова: англійська
тип: програмні (м'які)
формат: *.srt
Info
General
Unique ID : 189526557873027891008196616430292210141 (0x8E957CC01D3E0F90DC0C1BB1799291DD)
Complete name : E:\Support\Nightflyers (Season 1) [, 1080p, Ukr, Eng]\Nightflyers. s01e01. All That We Left Behind.
Format :
Format version : Version 4
File size : 1.93 GiB
Duration : 58 min 20 s
Overall bit rate : 4 733 kb/s
Encoded date : UTC 2019-01-05 11:58:56
Writing application : v30.0.0 ('Interstellar') 64-bit
Writing library : libebml v1.3.6 + v1.4.9

Video
ID : 1
Format : AVC
Format/Info : Advanced Video Codec
Format profile : [email protected]
Format settings : CABAC / 4 Ref Frames
Format settings, CABAC : Yes
Format settings, ReFrames : 4 frames
Codec ID : V_MPEG4/ISO/AVC
Duration : 58 min 20 s
Bit rate : 3 707 kb/s
Width : 1 920 pixels
Height : 1 080 pixels
Display aspect ratio : 16:9
Frame rate mode : Constant
Frame rate : 23.976 (24000/1001) FPS
Color space : YUV
Chroma subsampling : 4:2:0
Bit depth : 8 bits
Scan type : Progressive
Bits/(Pixel*Frame) : 0.075
Stream size : 1.51 GiB (78%)
Default : Yes
Forced : No
Color range : Limited
Color primaries : BT.709
Transfer characteristics : BT.709
Matrix coefficients : BT.709

Audio #1
ID : 2
Format : AC-3
Format/Info : Audio Coding 3
Commercial name : Dolby Digital
Codec ID : A_AC3
Duration : 58 min 18 s
Bit rate mode : Constant
Bit rate : 384 kb/s
Channel(s) : 6 channels
Channel layout : L R C LFE Ls Rs
Sampling rate : 48.0 kHz
Frame rate : 31.250 FPS (1536 SPF)
Bit depth : 16 bits
Compression mode : Lossy
Stream size : 160 MiB (8%)
Title : DniproFilm
Language : Ukrainian
Service kind : Complete Main
Default : Yes
Forced : No

Audio #2
ID : 3
Format : E-AC-3
Format/Info : Enhanced AC-3
Commercial name : Dolby Digital Plus
Codec ID : A_EAC3
Duration : 58 min 20 s
Bit rate mode : Constant
Bit rate : 640 kb/s
Channel(s) : 6 channels
Channel layout : L R C LFE Ls Rs
Sampling rate : 48.0 kHz
Frame rate : 31.250 FPS (1536 SPF)
Compression mode : Lossy
Stream size : 267 MiB (14%)
Language : English
Service kind : Complete Main
Default : No
Forced : No

Text
ID : 4
Format : UTF-8
Codec ID : S_TEXT/UTF8
Codec ID/Info : UTF-8 Plain Text
Duration : 57 min 15 s
Bit rate : 55 b/s
Count of elements : 1117
Stream size : 23.1 KiB (0%)
Language : English
Default : No
Forced : No
Скріншоти












Джерело:
Особиста оцінка: 0 - не дивився

РЕЛІЗ БЕЗ РЕКЛАМИ


Авторський реліз (завантажувати можна без реєстрації)
 Трекер:    Зареєстрований   

Завантажити / скачати серіал українською



відео для новачків



 Зареєстрований:   2019-01-06 18:47
 Розмір:   12.75 GB 
 Оцінка серіалу:   8.8/10 (Голосів: 4)
   
Anonymous 







2019-01-05 18:20  
Звук без реклами було знайдено в інтернеті та пересинхронізовано під відео. Помітите залишки реклами чи якісь інші вади звуку - пишіть в темі.
staf777 
Попереджень: 1
Попереджень: 1 


З нами з: 16.11.16
Востаннє: 15.01.19
Повідомлень: 2053

2019-01-05 19:05  
Хто дивився як серіал
Ігор Вінський 
VIP


З нами з: 17.03.11
Востаннє: 24.01.19
Повідомлень: 405

2019-01-05 19:41  
Вже дивився, щоправда з реклямою. Тепер завантажу для колекції без неї. Це добре що без реклями зробили. Дивився також фільм https://toloka.to/t21857 щоби відчути різницю. Серіял в принципі дивитися можна, другий раз можливо колись подивлюся. Прикро що й тут є пропаганда неправильних статевих відносин. Типу тітка чмокає тітку. Я це спостерігаю у багатьох сучасних фантастичних серіялах, на жаль. Без цього ґанжу серіял би тільки виграв, думаю.
11FrYkT 
Модератор відео


З нами з: 20.02.11
Востаннє: 24.01.19
Повідомлень: 5430

2019-01-06 15:15  
Anonymous написано:
переклад: багатоголосий закадровий | DniproFilm

з рекламою чи без?

Anonymous 







2019-01-06 15:21  
11FrYkT написано:
з рекламою чи без?

Без, але робив не я і ретельно не перевіряв, та принаймні перше місце аудіореклами - чисте.

11FrYkT 
Модератор відео


З нами з: 20.02.11
Востаннє: 24.01.19
Повідомлень: 5430

2019-01-06 15:30  
Anonymous написано:
Без, але робив не я і ретельно не перевіряв

вкажіть в темі

Anonymous 







2019-01-06 16:02  
11FrYkT
Дідько, знайшов одну невирізану рекламу. Доведеться переробити реліз.

11FrYkT 
Модератор відео


З нами з: 20.02.11
Востаннє: 24.01.19
Повідомлень: 5430

2019-01-06 16:02  
Anonymous написано:
Дідько, знайшов одну невирізану рекламу. Доведеться переробити реліз.

ок заодно в темі пропишите що вже без

Anonymous 







2019-01-06 18:49  
Торрент оновлено, замінено звук в четвертій серії.
Ваш часовий пояс: GMT + 2 Години

Нова тема   Відповісти