Білий хлопець Рік / White Boy Rick (2018) 1080p H.265 Ukr/Eng | Sub Eng | Без реклами

Нові коментарі

Нова тема   Відповісти
Автор Повідомлення
Anonymous 







2019-01-05 16:36  
Білий хлопець Рік / White Boy Rick (2018) 1080p H.265 Ukr/Eng | Sub Eng

Білий хлопець Рік / White Boy Rick (2018) 1080p H.265 Ukr/Eng | Sub Eng | Без реклами


Жанр: драма, кримінальний
Країна: США
Кінокомпанія: LBI Productions, Protozoa Pictures, Studio 8
Режисер: Ян Деманж
Актори: Метью МакКонахі, Річі Мерріт, Бел Паулі, Дженіфер Джейсон Лі, Брайан Тайрі Генрі, Рорі Кокрейн, АрДжей Сайлер, Джонатан Мейджерс, Едді Марсан, Тейлор Пейдж

Сюжет:
Правдива історія підлітка Річарда Верше зі звичайної сім'ї в Детройті, який став великою фігурою місцевого наркобізнесу 80-тих. Завоювавши довіру «авторитетів», 17-річний дилер бере під контроль величезні партії кокаїну. Але його вiк не розчулить охоронців порядку...
Реліз без реклами

Тривалість: 01:51:06
Якість:
Відео:
кодек: H.265 (HEVC)
розмір кадру: 1920 x 804
бітрейт: 4 999 кб/с
частота кадрів: 23.976 fps
біт піксель: 0.135 BPP
бітова глибина: 10 біт
Увага! Перед завантаженням переконайтесь, що ваш пристрій відтворення (та/або ПЗ) підтримує H.265 (HEVC)

Аудіо # 1:
мова: українська
переклад: багатоголосий закадровий | DniproFilm
кодек: AC-3 5.1
бітрейт: 640 кб/с
Підтримати українське озвучення
Для студії DniproFilm дуже важлива популярність, чим популярнішою буде студія, тим більшу кількість українського озвучення до нових фільмів та серіалів в неї замовлятимуть. Тому прохання до не байдужих підписуватися на їх телеграм канал
Аудіо # 2:
мова: англійська
переклад: оригінал
кодек: 5.1
бітрейт: 1510 кб/с

Субтитри # 1:
мова: англійська (Full),
тип: програмні (м'які)
формат: *.srt


Info
Код:
General
Unique ID                                : 307158132023804643121066279684469848777 (0xE7148121304E7888BA3908D95ECA7AC9)
Complete name                            : F:\Video\White Boy Rick (2018) 1080p H.265 [UKR_ENG].
Format                                   :
Format version                           : Version 4 / Version 2
File size                                : 5.55 GiB
Duration                                 : 1 h 51 min
Overall bit rate                         : 7 153 kb/s
Movie name                               : White Boy Rick (2018)
Encoded date                             : UTC 2019-01-05 14:10:51
Writing application                      : v20.0.0 ('I Am The Sun') 32-bit
Writing library                          : libebml v1.3.5 + v1.4.8
Cover                                    : Yes
Attachments                              : Cover.jpg

Video
ID                                       : 1
Format                                   : HEVC
Format/Info                              : High Efficiency Video Coding
Format profile                           : Main [email protected]@Main
Codec ID                                 : V_MPEGH/ISO/HEVC
Duration                                 : 1 h 51 min
Bit rate                                 : 4 999 kb/s
Width                                    : 1 920 pixels
Height                                   : 804 pixels
Display aspect ratio                     : 2.40:1
Frame rate mode                          : Constant
Frame rate                               : 23.976 (24000/1001) FPS
Color space                              : YUV
Chroma subsampling                       : 4:2:0
Bit depth                                : 10 bits
Bits/(Pixel*Frame)                       : 0.135
Stream size                              : 3.88 GiB (70%)
Title                                    : White Boy Rick (2018)
Writing library                          : x265 2.9+14-3023bd8b05c0:[Windows][GCC 8.2.1][64 bit] 10bit
Encoding settings                        : cpuid=1111039 / frame-threads=3 / numa-pools=8 / wpp / no-pmode / no-pme / no-psnr / no-ssim / log-level=2 / input-csp=1 / input-res=1920x804 / interlace=0 / total-frames=159836 / level-idc=0 / high-tier=1 / uhd-bd=0 / ref=4 / no-allow-non-conformance / no-repeat-headers / annexb / no-aud / no-hrd / info / hash=0 / no-temporal-layers / open-gop / min-keyint=23 / keyint=250 / gop-lookahead=0 / bframes=4 / b-adapt=2 / b-pyramid / bframe-bias=0 / rc-lookahead=25 / lookahead-slices=4 / scenecut=40 / radl=0 / no-splice / no-intra-refresh / ctu=64 / min-cu-size=8 / rect / no-amp / max-tu-size=32 / tu-inter-depth=1 / tu-intra-depth=1 / limit-tu=0 / rdoq-level=2 / dynamic-rd=0.00 / no-ssim-rd / signhide / no-tskip / nr-intra=0 / nr-inter=0 / no-constrained-intra / strong-intra-smoothing / max-merge=3 / limit-refs=3 / limit-modes / me=3 / subme=3 / merange=57 / temporal-mvp / weightp / no-weightb / no-analyze-src-pics / deblock=0:0 / sao / no-sao-non-deblock / rd=4 / no-early-skip / rskip / no-fast-intra / no-tskip-fast / no-cu-lossless / no-b-intra / no-splitrd-skip / rdpenalty=0 / psy-rd=2.00 / psy-rdoq=1.00 / no-rd-refine / no-lossless / cbqpoffs=0 / crqpoffs=0 / rc=abr / bitrate=5000 / qcomp=0.60 / qpstep=4 / stats-write=0 / stats-read=2 / cplxblur=20.0 / qblur=0.5 / ipratio=1.40 / pbratio=1.30 / aq-mode=3 / aq-strength=1.00 / cutree / zone-count=0 / no-strict-cbr / qg-size=32 / no-rc-grain / qpmax=69 / qpmin=0 / no-const-vbv / sar=0 / overscan=0 / videoformat=5 / range=0 / colorprim=2 / transfer=2 / colormatrix=2 / chromaloc=0 / display-window=0 / max-cll=0,0 / min-luma=0 / max-luma=1023 / log2-max-poc-lsb=8 / vui-timing-info / vui-hrd-info / slices=1 / no-opt-qp-pps / no-opt-ref-list-length-pps / multi-pass-opt-rps / scenecut-bias=0.05 / no-opt-cu-delta-qp / aq-motion / no-hdr / no-hdr-opt / no-dhdr10-opt / no-idr-recovery-sei / analysis-reuse-level=5 / scale-factor=0 / refine-intra=0 / refine-inter=0 / refine-mv=0 / no-limit-sao / ctu-info=0 / no-lowpass-dct / refine-mv-type=0 / copy-pic=1 / max-ausize-factor=1.0 / no-dynamic-refine / no-single-sei
Default                                  : Yes
Forced                                   : No

Audio #1
ID                                       : 2
Format                                   : AC-3
Format/Info                              : Audio Coding 3
Codec ID                                 : A_AC3
Duration                                 : 1 h 51 min
Bit rate mode                            : Constant
Bit rate                                 : 640 kb/s
Channel(s)                               : 6 channels
Channel positions                        : Front: L C R, Side: L R, LFE
Sampling rate                            : 48.0 kHz
Frame rate                               : 31.250 FPS (1536 SPF)
Bit depth                                : 16 bits
Compression mode                         : Lossy
Stream size                              : 509 MiB (9%)
Title                                    : БЗ - DniproFilm
Language                                 : Ukrainian
Service kind                             : Complete Main
Default                                  : Yes
Forced                                   : Yes

Audio #2
ID                                       : 3
Format                                   :
Format/Info                              : Digital Theater Systems
Codec ID                                 : A_DTS
Duration                                 : 1 h 51 min
Bit rate mode                            : Constant
Bit rate                                 : 1 509 kb/s
Channel(s)                               : 6 channels
Channel positions                        : Front: L C R, Side: L R, LFE
Sampling rate                            : 48.0 kHz
Frame rate                               : 93.750 FPS (512 SPF)
Bit depth                                : 24 bits
Compression mode                         : Lossy
Stream size                              : 1.17 GiB (21%)
Title                                    : Original
Language                                 : English
Default                                  : No
Forced                                   : No

Text
ID                                       : 4
Format                                   : UTF-8
Codec ID                                 : S_TEXT/UTF8
Codec ID/Info                            : UTF-8 Plain Text
Duration                                 : 1 h 44 min
Bit rate                                 : 68 b/s
Count of elements                        : 1550
Stream size                              : 51.9 KiB (0%)
Title                                    : Full
Language                                 : English
Default                                  : Yes
Forced                                   : No

Menu
00:00:00.000                             : en:Chapter 01
00:02:44.831                             : en:Chapter 02
00:04:14.379                             : en:Chapter 03
00:05:18.484                             : en:Chapter 04
00:06:56.582                             : en:Chapter 05
00:08:22.460                             : en:Chapter 06
00:09:53.509                             : en:Chapter 07
00:11:29.188                             : en:Chapter 08
00:12:58.861                             : en:Chapter 09
00:14:28.784                             : en:Chapter 10
00:16:05.255                             : en:Chapter 11
00:17:37.681                             : en:Chapter 12
00:19:08.105                             : en:Chapter 13
00:20:39.905                             : en:Chapter 14
00:22:12.039                             : en:Chapter 15
00:24:12.784                             : en:Chapter 16
00:26:16.950                             : en:Chapter 17
00:28:10.939                             : en:Chapter 18
00:30:15.313                             : en:Chapter 19
00:32:12.764                             : en:Chapter 20
00:34:06.711                             : en:Chapter 21
00:35:45.101                             : en:Chapter 22
00:37:15.274                             : en:Chapter 23
00:38:44.864                             : en:Chapter 24
00:40:16.705                             : en:Chapter 25
00:41:47.004                             : en:Chapter 26
00:43:16.510                             : en:Chapter 27
00:44:51.522                             : en:Chapter 28
00:46:22.696                             : en:Chapter 29
00:47:53.120                             : en:Chapter 30
00:49:25.295                             : en:Chapter 31
00:50:56.053                             : en:Chapter 32
00:52:27.602                             : en:Chapter 33
00:55:30.035                             : en:Chapter 34
00:57:01.584                             : en:Chapter 35
00:58:33.134                             : en:Chapter 36
01:00:04.058                             : en:Chapter 37
01:01:37.151                             : en:Chapter 38
01:03:07.909                             : en:Chapter 39
01:06:07.338                             : en:Chapter 40
01:07:38.137                             : en:Chapter 41
01:09:36.088                             : en:Chapter 42
01:11:36.333                             : en:Chapter 43
01:13:35.828                             : en:Chapter 44
01:15:36.156                             : en:Chapter 45
01:16:44.808                             : en:Chapter 46
01:18:46.263                             : en:Chapter 47
01:20:37.749                             : en:Chapter 48
01:22:37.160                             : en:Chapter 49
01:24:38.573                             : en:Chapter 50
01:26:41.112                             : en:Chapter 51
01:28:42.066                             : en:Chapter 52
01:30:42.645                             : en:Chapter 53
01:32:45.184                             : en:Chapter 54
01:34:46.222                             : en:Chapter 55
01:36:46.675                             : en:Chapter 56
01:38:49.965                             : en:Chapter 57
01:40:50.294                             : en:Chapter 58
01:42:51.832                             : en:Chapter 59
01:44:33.642                             : en:Chapter 60
Світлини




Джерело:
Особиста оцінка: 0 - не дивився


>>> Усі мої релізи <<<



Авторський реліз (завантажувати можна без реєстрації)
 Трекер:    Зареєстрований   

Завантажити / скачати фільм українською



відео для новачків



 Зареєстрований:   2019-01-05 16:36
 Розмір:   5.55 GB 
 Оцінка фільму:   7/10 (Голосів: 3)
   
Інші релізи
Ваш часовий пояс: GMT + 2 Години

Нова тема   Відповісти