Перше вбивство / First Kill (2017) 720p Ukr/Eng | Sub Eng

Нові коментарі

Нова тема   Відповісти
Автор Повідомлення
staf777 
Відео Гуртом - підтримка та поширення
Відео Гуртом - підтримка та поширення


З нами з: 16.11.16
Востаннє: 24.09.20
Повідомлень: 4034

2019-01-04 22:28  
Перше вбивство / First Kill (2017) 720p Ukr/Eng | Sub Eng

Перше вбивство / First Kill (2017) 720p Ukr/Eng | Sub Eng


Жанр: Бойовик, триллер
Країна: США



Кінокомпанія: Aboretum Productions, Brookstreet Pictures, Emmett/Furla/Oasis Films (EFO Films)
Режисер: Стівен С. Міллер
Актори: Брюс Вілліс, Хейден Крістенсен, Гетін Ентоні, Магі Авіла, Шарлотта Кірк, Вільям ДеМео, Тамара Білоус, Хезер Йохансен, Тайлер Джон Олсон

Сюжет:
У спробі відновити зв'язок зі своїм сином Денні, успішний брокер Уолл-стріт Уілл везе сім'ю на канікул до місцини, де він виріс. У той час як Уілл та Денні полюють, вони стають свідками розбірки поліцейського та злочинця через пограбування банку. Коли Денні захоплено заручником злочинця, Уілл змушений допомогти йому ховатися від начальника поліції, який розслідує вбивство. Уілл нмагається повернути вкрадені гроші в обмін на життя свого сина.


Тривалість: 01:41:42
Якість: 720p
Відео:
кодек:
розмір кадру: 1280x534
бітрейт: 4 317 кб/с

Аудіо # 1:
мова: українська
переклад: багатоголосий закадровий
кодек: 2.0
бітрейт: 192 кб/с

Аудіо # 2:
мова: англійська
переклад: оригінал
кодек: 5.1
бітрейт: 448 кб/с

Джерело озвучення:


Субтитри: (Full, SDH)
мова: англійська
тип: програмні (м'які)
формат: *.srt
Info
General
Unique ID : 102962467616935197096743506074421022601 (0x4D75D9968783BB61FED33C34FBD5CF89)
Complete name : L:\Фільми в HD\Бойовик\First Kill (2017) 720p [UKR][ENG][Hurtom].
Format :
Format version : Version 4 / Version 2
File size : 3.52 GiB
Duration : 1 h 41 min
Overall bit rate : 4 956 kb/s
Movie name : First Kill (2017) 720p [UKR][ENG][Hurtom]
Encoded date : UTC 2019-01-04 19:04:25
Writing application : v24.0.0 ('Beyond The Pale') 64-bit
Writing library : libebml v1.3.6 + v1.4.9
Cover : Yes
Attachments : cover.jpg

Video
ID : 1
Format : AVC
Format/Info : Advanced Video Codec
Format profile : [email protected]
Format settings : CABAC / 12 Ref Frames
Format settings, CABAC : Yes
Format settings, ReFrames : 12 frames
Codec ID : V_MPEG4/ISO/AVC
Duration : 1 h 41 min
Bit rate : 4 317 kb/s
Width : 1 280 pixels
Height : 534 pixels
Display aspect ratio : 2.40:1
Frame rate mode : Constant
Frame rate : 23.976 (24000/1001) FPS
Color space : YUV
Chroma subsampling : 4:2:0
Bit depth : 8 bits
Scan type : Progressive
Bits/(Pixel*Frame) : 0.263
Stream size : 3.06 GiB (87%)
Writing library : core 146 r2538 121396c
Encoding settings : cabac=1 / ref=12 / deblock=1:-3:-3 / analyse=0x3:0x133 / me=umh / subme=11 / psy=1 / psy_rd=1.00:0.00 / mixed_ref=1 / me_range=32 / chroma_me=1 / trellis=2 / 8x8dct=1 / cqm=0 / deadzone=21,11 / fast_pskip=0 / chroma_qp_offset=-2 / threads=12 / lookahead_threads=3 / sliced_threads=0 / nr=0 / decimate=0 / interlaced=0 / bluray_compat=0 / constrained_intra=0 / bframes=11 / b_pyramid=2 / b_adapt=2 / b_bias=0 / direct=3 / weightb=1 / open_gop=0 / weightp=2 / keyint=240 / keyint_min=23 / scenecut=40 / intra_refresh=0 / rc=2pass / mbtree=0 / bitrate=4317 / ratetol=1.0 / qcomp=0.60 / qpmin=0 / qpmax=69 / qpstep=4 / cplxblur=20.0 / qblur=0.5 / ip_ratio=1.40 / pb_ratio=1.30 / aq=3:0.80
Language : English
Default : Yes
Forced : No

Audio #1
ID : 2
Format : AC-3
Format/Info : Audio Coding 3
Codec ID : A_AC3
Duration : 1 h 41 min
Bit rate mode : Constant
Bit rate : 192 kb/s
Channel(s) : 2 channels
Channel positions : Front: L R
Sampling rate : 48.0 kHz
Frame rate : 31.250 FPS (1536 SPF)
Bit depth : 16 bits
Compression mode : Lossy
Stream size : 140 MiB (4%)
Title : 2+2
Language : Ukrainian
Service kind : Complete Main
Default : Yes
Forced : Yes

Audio #2
ID : 3
Format : AC-3
Format/Info : Audio Coding 3
Codec ID : A_AC3
Duration : 1 h 41 min
Bit rate mode : Constant
Bit rate : 448 kb/s
Channel(s) : 6 channels
Channel positions : Front: L C R, Side: L R, LFE
Sampling rate : 48.0 kHz
Frame rate : 31.250 FPS (1536 SPF)
Bit depth : 16 bits
Compression mode : Lossy
Stream size : 326 MiB (9%)
Language : English
Service kind : Complete Main
Default : No
Forced : No

Text #1
ID : 4
Format : UTF-8
Codec ID : S_TEXT/UTF8
Codec ID/Info : UTF-8 Plain Text
Duration : 1 h 32 min
Bit rate : 44 b/s
Count of elements : 986
Stream size : 30.1 KiB (0%)
Title : Full
Language : English
Default : No
Forced : No

Text #2
ID : 5
Format : UTF-8
Codec ID : S_TEXT/UTF8
Codec ID/Info : UTF-8 Plain Text
Duration : 1 h 34 min
Bit rate : 48 b/s
Count of elements : 1128
Stream size : 33.4 KiB (0%)
Title : SDH
Language : English
Default : No
Forced : No

Menu
00:00:00.000 : en:Chapter 01
00:06:17.960 : en:Chapter 02
00:12:44.013 : en:Chapter 03
00:18:11.048 : en:Chapter 04
00:27:18.303 : en:Chapter 05
00:31:22.672 : en:Chapter 06
00:36:54.337 : en:Chapter 07
00:42:25.042 : en:Chapter 08
00:47:59.960 : en:Chapter 09
00:54:46.992 : en:Chapter 10
00:59:12.423 : en:Chapter 11
01:06:39.537 : en:Chapter 12
01:12:08.907 : en:Chapter 13
01:18:46.596 : en:Chapter 14
01:24:15.800 : en:Chapter 15
01:31:56.093 : en:Chapter 16
Скріншоти




Запис з ТБ: Sando7, Bohdan237 Синхронізація:drop_plz
Джерело: &
Особиста оцінка: 8 - мені сподобалося
Перше вбивство / First Kill (2017) 720p Ukr/Eng | Sub Eng Перше вбивство / First Kill (2017) 720p Ukr/Eng | Sub Eng


 Трекер:    Зареєстрований   

Завантажити / скачати фільм українською



відео для новачків



 Зареєстрований:   2019-01-04 22:28
 Розмір:   3.52 GB 
 Оцінка фільму:   8.2/10 (Голосів: 11)
   
Інші релізи
   Перше вбивство / First Kill (2017) Ukr/Eng drop_plz  4 / 0   1.47 GB   2018-12-17 09:22 
   Перше вбивство / First Kill (2017) AVC Ukr | Sub Eng sergiyko.5  5 / 0   1.28 GB   2018-12-17 01:43 
   Перше вбивство / First Kill (2017) 1080p Ukr/Eng | Sub Eng sergiyko.5  4 / 0   9.47 GB   2018-12-17 01:34 
Ваш часовий пояс: GMT + 2 Години

Нова тема   Відповісти