Джеймс Бонд. Агент 007: І цілого світу замало / James Bond: The World Is Not Enough (1999) Remux 1080p 2xUkr/Eng | Sub Ukr/Eng

Нові коментарі

Нова тема   Відповісти
Автор Повідомлення
MakRA 
VIP


З нами з: 11.11.18
Востаннє: 26.09.20
Повідомлень: 1120

2019-01-04 15:46  
Джеймс Бонд. Агент 007: І цілого світу замало / James Bond: The World Is Not Enough (1999) Remux 1080p 2хUkr/Eng | Sub Ukr/Eng

Джеймс Бонд. Агент 007: І цілого світу замало / James Bond: The World Is Not Enough (1999) Remux 1080p 2xUkr/Eng | Sub Ukr/Eng


Жанр: бойовик, пригодницький, трилер
Країна: США, Велика Британія



Кінокомпанія: Metro-Goldwyn-Mayer (MGM)
Режисер: Майкл Ептед [Michael Apted]
Актори: Пірс Броснан [Pierce Brosnan], Софі Марсо [Sophie Danièle Sylvie Marceau], Роберт Карлайл [Robert Carlyle], Деніз Річардс [Denise Lee Richards], Роббі Колтрейн [Robbie Coltrane], Джуді Денч [Dame Judith Olivia «Judi» Dench], Десмонд Ллевелін [Desmond Wilkinson Llewelyn], Саманта Бонд [Samantha Bond], Джон Кліз [John Cleese], Марія Грація Кучінотта [Maria Grazia Cucinotta].

Сюжет:
Дев'ятнадцятий фільм про англійського суперагента Джеймса Бонда.

Терористи викрадають дочку англійського бізнесмена Роберта Кінга та вимагають викуп у розмірі $5 млн. Доньці Кінга вдається втекти, та сам бізнесмен гине від рук терористів. Завданням Джеймса Бонда є оберігати дівчину та з'ясувати, хто стоїть за вбивством її батька.

Це був останній фільм, в якому роль Q грав Десмонд Ллевелін, який грав цю роль з 1963 року ("З Росії з любов'ю"). У цьому фільмі Q представляє Бонду свого наступника (актор Джон Кліз), якого Бонд жартома називає R (наступна буква англійського алфавіту).


Тривалість: 02:08:20
Якість: Remux 1080p
Відео:
кодек:
розмір кадру: 1920 х 1080
бітрейт: 25 Мб/с

Аудіо # 1:
мова: українська
переклад: багатоголосий закадровий [1+1]
кодек: 2.0
бітрейт: 256 kb/s

Аудіо # 2: "Так Треба Продакшн"
мова: українська
переклад: багатоголосий закадровий ["Так Треба Продакшн"]
кодек: 2.0
бітрейт: 256 kb/s

Аудіо # 3:
мова: англійська
переклад: оригінал
кодек: -HD MA 5.1
бітрейт: 3018 kb/s

Аудіо # 4:
мова: англійська
переклад: оригінал
кодек: 5.1
бітрейт: 448 kb/s

Аудіо # 5:
мова: англійська
переклад: коментарі
кодек: 2.0
бітрейт: 224 kb/s

Субтитри # 1:
мова: українська
тип: пререндерні
формат: *.pgs

Субтитри # 2:
мова: англійська
тип: пререндерні
формат: *.pgs
Info
General
Unique ID : 290794266216548077724976814665758857225 (0xDAC4F0414A6870BC3234F2F79CE2D809)
Complete name : E:\! Моя роздача\James Bond The World Is Not Enough (1999) Remux 1080p 2хUkrEng Sub UkrEng [Hurtom].
Format :
Format version : Version 4 / Version 2
File size : 26.2 GiB
Duration : 2 h 8 min
Overall bit rate mode : Variable
Overall bit rate : 29.3 Mb/s
Encoded date : UTC 2019-01-03 23:19:46
Writing application : v25.0.0 ('Prog Noir') 64-bit
Writing library : libebml v1.3.6 + v1.4.9

Video
ID : 1
Format : AVC
Format/Info : Advanced Video Codec
Format profile : [email protected]
Format settings, CABAC : Yes
Format settings, RefFrames : 4 frames
Codec ID : V_MPEG4/ISO/AVC
Duration : 2 h 8 min
Bit rate mode : Variable
Bit rate : 25.0 Mb/s
Maximum bit rate : 37.0 Mb/s
Width : 1 920 pixels
Height : 1 080 pixels
Display aspect ratio : 16:9
Frame rate mode : Constant
Frame rate : 23.976 (24000/1001) FPS
Color space : YUV
Chroma subsampling : 4:2:0
Bit depth : 8 bits
Scan type : Progressive
Bits/(Pixel*Frame) : 0.504
Stream size : 22.5 GiB (86%)
Title : James Bond: The World Is Not Enough (1999) Remux 1080p 2хUkr/Eng | Sub Ukr/Eng [Hurtom]
Language : Ukrainian
Default : Yes
Forced : Yes
Color range : Limited
Color primaries : BT.709
Transfer characteristics : BT.709
Matrix coefficients : BT.709

Audio #1
ID : 2
Format : AC-3
Format/Info : Audio Coding 3
Format settings, Endianness : Big
Codec ID : A_AC3
Duration : 2 h 8 min
Bit rate mode : Constant
Bit rate : 256 kb/s
Channel(s) : 2 channels
Channel positions : Front: L R
Sampling rate : 48.0 kHz
Frame rate : 31.250 FPS (1536 SPF)
Bit depth : 16 bits
Compression mode : Lossy
Stream size : 235 MiB (1%)
Title : MVO [1+1]
Language : Ukrainian
Service kind : Complete Main
Default : Yes
Forced : Yes

Audio #2
ID : 3
Format : AC-3
Format/Info : Audio Coding 3
Format settings, Endianness : Big
Codec ID : A_AC3
Duration : 2 h 8 min
Bit rate mode : Constant
Bit rate : 256 kb/s
Channel(s) : 2 channels
Channel positions : Front: L R
Sampling rate : 48.0 kHz
Frame rate : 31.250 FPS (1536 SPF)
Bit depth : 16 bits
Compression mode : Lossy
Stream size : 235 MiB (1%)
Title : MVO ["Так Треба Продакшн"]
Language : Ukrainian
Service kind : Complete Main
Default : No
Forced : No

Audio #3
ID : 4
Format :
Format/Info : Digital Theater Systems
Format profile : HRA / Core
Mode : 16
Format settings, Endianness : Big
Codec ID : A_DTS
Duration : 2 h 8 min
Bit rate mode : Constant
Bit rate : 3 018 kb/s / 1 509 kb/s
Channel(s) : 6 channels
Channel positions : Front: L C R, Side: L R, LFE
Sampling rate : 48.0 kHz
Frame rate : 93.750 FPS (512 SPF)
Bit depth : 24 bits
Compression mode : Lossy
Stream size : 2.71 GiB (10%)
Title : Original
Language : English
Default : No
Forced : No

Audio #4
ID : 5
Format : AC-3
Format/Info : Audio Coding 3
Format settings, Endianness : Big
Codec ID : A_AC3
Duration : 2 h 8 min
Bit rate mode : Constant
Bit rate : 448 kb/s
Channel(s) : 6 channels
Channel positions : Front: L C R, Side: L R, LFE
Sampling rate : 48.0 kHz
Frame rate : 31.250 FPS (1536 SPF)
Bit depth : 16 bits
Compression mode : Lossy
Stream size : 411 MiB (2%)
Title : Original
Language : English
Service kind : Complete Main
Default : No
Forced : No

Audio #5
ID : 6
Format : AC-3
Format/Info : Audio Coding 3
Format settings, Endianness : Big
Codec ID : A_AC3
Duration : 2 h 8 min
Bit rate mode : Constant
Bit rate : 224 kb/s
Channel(s) : 2 channels
Channel positions : Front: L R
Sampling rate : 48.0 kHz
Frame rate : 31.250 FPS (1536 SPF)
Bit depth : 16 bits
Compression mode : Lossy
Stream size : 206 MiB (1%)
Title : Original (коментарі)
Language : English
Service kind : Complete Main
Default : No
Forced : No

Text #1
ID : 7
Format : PGS
Muxing mode : zlib
Codec ID : S_HDMV/PGS
Codec ID/Info : Picture based subtitle format used on BDs/HD-DVDs
Duration : 2 h 3 min
Bit rate : 20.6 kb/s
Count of elements : 1706
Stream size : 18.3 MiB (0%)
Title : Ukr
Language : Ukrainian
Default : Yes
Forced : Yes

Text #2
ID : 8
Format : PGS
Muxing mode : zlib
Codec ID : S_HDMV/PGS
Codec ID/Info : Picture based subtitle format used on BDs/HD-DVDs
Duration : 2 h 3 min
Bit rate : 24.4 kb/s
Count of elements : 1938
Stream size : 21.5 MiB (0%)
Title : Eng
Language : English
Default : No
Forced : No
Скріншоти
Джерело: &
Особиста оцінка: 10 - без зайвих вагань рекомендую всім!



Золотий реліз (завантажене не впливає на рейтинг)
 Трекер:    Зареєстрований   

Завантажити / скачати фільм українською



відео для новачків



 Зареєстрований:   2019-01-04 15:46
 Розмір:   26.23 GB 
 Оцінка фільму:   9.9/10 (Голосів: 10)
   
geroyasfalta 
Свій


З нами з: 20.06.11
Востаннє: 23.09.20
Повідомлень: 94

2019-01-06 12:39  
Дякую! Але можна було б і 2 дубляжа ще прикріпити сюди.Багатоголосий ТакТреба це дубляж.
Ваш часовий пояс: GMT + 2 Години

Нова тема   Відповісти