Том і Джеррі: Гігантська пригода / Tom and Jerry's Giant Adventure (2013) AVC

Нові коментарі

Нова тема   Відповісти
Автор Повідомлення
sergiyko.5 
Забанено
Забанено


З нами з: 25.02.16
Востаннє: 29.10.20
Повідомлень: 3651

2019-01-04 12:56  


Том і Джеррі: Гігантська пригода / Tom and Jerry's Giant Adventure (2013) AVC

Том і Джеррі: Гігантська пригода / Tom and Jerry's Giant Adventure (2013) AVC

Жанр: пригоди, комедія
Країна: США
Режисер: Спайк Брандт(Spike Brandt), Тоні Червоне(Tony Cervone)
Ролі озвучували: Келлі Стейблз, Віккі Льюіс, Джим Каммінгс, Лорейн Ньюмен, Вуейн Найт

Опис: У цьому мультфільмі Том і Джеррі – одні з останніх звіряток, що залишилися в парку розваг Місто казок. Хлопчик Джек хоче врятувати парк від рук жадібного мільярдера і разом зі своїми вірними друзями – котом і мишеням – вирішує продати свого бичка за жменю чарівних бобів. Забравшись за допомогою гігантського бобового стебла за хмари, вони потрапляють у чарівну країну.



Тривалість: 00:57:07
Якість:

Відео: кодек: розмір кадру: 1024 x 576 бітрейт: 1750 кб/с
Аудіо: мова: українська переклад: багатоголосий закадровий кодек: 2.0 бітрейт: 192 кб/с
Озвучення:
Інформація про файл:
General
Unique ID : 339796487615378979381015496652357579550 (0xFFA26C4CFAA0775C45F47A4ADAAF331E)
Complete name : G:\Torrents2\MULT\Tom and Jerry's.Giant Adventure.2013..
Format :
Format version : Version 4
File size : 791 MiB
Duration : 57 min 7 s
Overall bit rate : 1 937 kb/s
Movie name : Tom and Jerry's. Giant Adventure 2013 by sergiyko
Encoded date : UTC 2019-01-04 10:53:34
Writing application : v29.0.0 ('Like It Or Not') 64-bit
Writing library : libebml v1.3.6 + v1.4.9
Cover : Yes
Attachments : cover.jpg

Video
ID : 1
Format : AVC
Format/Info : Advanced Video Codec
Format profile : [email protected]
Format settings : CABAC / 12 Ref Frames
Format settings, CABAC : Yes
Format settings, ReFrames : 12 frames
Codec ID : V_MPEG4/ISO/AVC
Duration : 57 min 6 s
Bit rate : 1 742 kb/s
Width : 1 024 pixels
Height : 576 pixels
Display aspect ratio : 16:9
Frame rate mode : Constant
Frame rate : 23.976 (24000/1001) FPS
Color space : YUV
Chroma subsampling : 4:2:0
Bit depth : 8 bits
Scan type : Progressive
Bits/(Pixel*Frame) : 0.123
Stream size : 712 MiB (90%)
Title : Tom and Jerry's Giant Adventure 2013
Writing library : core 152 r2851 ba24899
Encoding settings : cabac=1 / ref=12 / deblock=1:-1:-1 / analyse=0x3:0x133 / me=umh / subme=9 / psy=1 / psy_rd=0.40:0.00 / mixed_ref=1 / me_range=24 / chroma_me=1 / trellis=2 / 8x8dct=1 / cqm=0 / deadzone=21,11 / fast_pskip=1 / chroma_qp_offset=-2 / threads=18 / lookahead_threads=3 / sliced_threads=0 / nr=0 / decimate=1 / interlaced=0 / bluray_compat=0 / constrained_intra=0 / bframes=8 / b_pyramid=2 / b_adapt=2 / b_bias=0 / direct=1 / weightb=1 / open_gop=0 / weightp=2 / keyint=250 / keyint_min=23 / scenecut=40 / intra_refresh=0 / rc_lookahead=60 / rc=crf / mbtree=1 / crf=19.0 / qcomp=0.70 / qpmin=0 / qpmax=69 / qpstep=4 / ip_ratio=1.40 / aq=1:0.60
Language : English
Default : Yes
Forced : No

Audio
ID : 2
Format : AC-3
Format/Info : Audio Coding 3
Commercial name : Dolby Digital
Codec ID : A_AC3
Duration : 57 min 7 s
Bit rate mode : Constant
Bit rate : 192 kb/s
Channel(s) : 2 channels
Channel layout : L R
Sampling rate : 48.0 kHz
Frame rate : 31.250 FPS (1536 SPF)
Bit depth : 16 bits
Compression mode : Lossy
Stream size : 78.4 MiB (10%)
Title : MOV | Новий канал
Language : Ukrainian
Service kind : Complete Main
Default : Yes
Forced : No

Menu
00:00:00.000 : en:1.
00:12:15.000 : en:2.
00:19:54.000 : en:3.
00:29:02.000 : en:4.
00:38:33.000 : en:5.
00:50:12.000 : en:6.
Скріншоти:



Запис/зведення/ріп: sergiyko


 Трекер:    Зареєстрований   

Завантажити / скачати мультфільм українською



відео для новачків



 Зареєстрований:   2019-01-04 12:56
 Розмір:   791 MB 
 Оцінка мультфільму:   9.5/10 (Голосів: 17)
   
Djohnnikey 
VIP


З нами з: 01.10.15
Востаннє: 31.10.20
Повідомлень: 423

2019-02-07 16:28  
Далеко не найкращий мультфільм про Тома та Джеррі, в якому, до того ж, самі кіт та миша - другорядні персонажі.
На самому початку вже руйнується один з головних принципів мультфільму - власниця Тома не стара негритянка, а якась білошкіра леді та хлопчик зі скляними очима.
Ну а у кінці історії хеппі-енд надто вже нереалістичний, адже, наскільки розуміє глядач, відвідуваність впала, тому що шоу перестало бути цікавим. І саме тому впали доходи і парк був на межі банкрутства. І тому все стало руйнуватися. Тобто: шоу перестало подобатися глядачам, але нічого нового не вигадали => впали доходи => все стало руйнуватися. Нам же в кінцівці представляють все так, ніби відремонтовані атракціони позбавлять від всіх бід. Але, вибачте, якщо менеджерської жилки у власників немає, то скоро, з золотим яйцем чи ні, вони повернуться до розбитого корита. Так що, де-факто, хепі-енду немає...
Єдине що вразило - це фея в костюмі учасниці бродвейського шоу 50-70-х.
5 з 10.

Ваш часовий пояс: GMT + 2 Години

Нова тема   Відповісти