Том і Джеррі: Гігантська пригода / Tom and Jerry's Giant Adventure (2013) 720p Ukr/Eng | Sub End

Нові коментарі

Нова тема   Відповісти
Автор Повідомлення
sergiyko.5 
VIP


З нами з: 25.02.16
Востаннє: 26.02.20
Повідомлень: 2954

2019-01-04 11:51  


Том і Джеррі: Гігантська пригода / Tom and Jerry's Giant Adventure (2013) 720p Ukr/Eng | Sub End

Том і Джеррі: Гігантська пригода / Tom and Jerry's Giant Adventure (2013) 720p Ukr/Eng | Sub End

Жанр: пригоди, комедія
Країна: США
Режисер: Спайк Брандт(Spike Brandt), Тоні Червоне(Tony Cervone)
Ролі озвучували: Келлі Стейблз, Віккі Льюіс, Джим Каммінгс, Лорейн Ньюмен, Вуейн Найт

Опис: У цьому мультфільмі Том і Джеррі – одні з останніх звіряток, що залишилися в парку розваг Місто казок. Хлопчик Джек хоче врятувати парк від рук жадібного мільярдера і разом зі своїми вірними друзями – котом і мишеням – вирішує продати свого бичка за жменю чарівних бобів. Забравшись за допомогою гігантського бобового стебла за хмари, вони потрапляють у чарівну країну.



Тривалість: 00:57:07
Якість:

Відео: кодек: розмір кадру: 1280 x 720 бітрейт: 4000 кб/с
Аудіо #1: мова: українська переклад: багатоголосий закадровий кодек: 2.0 бітрейт: 192 кб/с
Озвучення:
Аудіо #2: мова: англійська переклад: оригінал кодек: 5.1 бітрейт: 640 кб/с
Субтитри: мова: англійська тип: програмні (м’які) формат: *.srt
Інформація про файл:
General
Unique ID : 157395785764502007049263214492585260947 (0x766953609419E22D3237F94630CB7793)
Complete name : G:\Torrents2\MULT\Tom and Jerry's.Giant Adventure.2013.720p..Ukr.Eng.
Format :
Format version : Version 4
File size : 1.96 GiB
Duration : 57 min 7 s
Overall bit rate mode : Variable
Overall bit rate : 4 905 kb/s
Movie name : Tom and Jerrys giant adventure 2013 720p by sergiyko
Encoded date : UTC 2019-01-04 09:46:49
Writing application : v29.0.0 ('Like It Or Not') 64-bit
Writing library : libebml v1.3.6 + v1.4.9
Cover : Yes
Attachments : cover.jpg

Video
ID : 1
Format : AVC
Format/Info : Advanced Video Codec
Format profile : [email protected]
Format settings : CABAC / 9 Ref Frames
Format settings, CABAC : Yes
Format settings, ReFrames : 9 frames
Codec ID : V_MPEG4/ISO/AVC
Duration : 57 min 6 s
Bit rate mode : Variable
Bit rate : 4 070 kb/s
Maximum bit rate : 40.0 Mb/s
Width : 1 280 pixels
Height : 720 pixels
Display aspect ratio : 16:9
Frame rate mode : Constant
Frame rate : 23.976 (24000/1001) FPS
Color space : YUV
Chroma subsampling : 4:2:0
Bit depth : 8 bits
Scan type : Progressive
Bits/(Pixel*Frame) : 0.184
Stream size : 1.62 GiB (83%)
Title : Tom and Jerrys giant adventure 2013
Writing library : core 135 r2345kMod f0c1c53
Encoding settings : cabac=1 / ref=9 / deblock=1:-2:-2 / analyse=0x3:0x133 / me=umh / subme=10 / psy=1 / fade_compensate=0.00 / psy_rd=0.90:0.00 / mixed_ref=1 / me_range=24 / chroma_me=1 / trellis=2 / 8x8dct=1 / cqm=0 / deadzone=21,11 / fast_pskip=0 / chroma_qp_offset=-2 / threads=3 / lookahead_threads=1 / sliced_threads=0 / nr=0 / decimate=0 / interlaced=0 / bluray_compat=0 / constrained_intra=0 / bframes=6 / b_pyramid=2 / b_adapt=2 / b_bias=0 / direct=3 / weightb=1 / open_gop=0 / weightp=2 / keyint=250 / keyint_min=23 / scenecut=40 / intra_refresh=0 / rc=crf / mbtree=0 / crf=15.1500 / qcomp=0.60 / qpmin=0 / qpmax=69 / qpstep=4 / ip_ratio=1.40 / pb_ratio=1.30 / aq=1:0.80 / zones=64463,72181,crf=1
Language : English
Default : Yes
Forced : No

Audio #1
ID : 2
Format : AC-3
Format/Info : Audio Coding 3
Commercial name : Dolby Digital
Codec ID : A_AC3
Duration : 57 min 7 s
Bit rate mode : Constant
Bit rate : 192 kb/s
Channel(s) : 2 channels
Channel layout : L R
Sampling rate : 48.0 kHz
Frame rate : 31.250 FPS (1536 SPF)
Bit depth : 16 bits
Compression mode : Lossy
Stream size : 78.4 MiB (4%)
Title : MOV | Новий канал
Language : Ukrainian
Service kind : Complete Main
Default : Yes
Forced : Yes

Audio #2
ID : 3
Format : AC-3
Format/Info : Audio Coding 3
Commercial name : Dolby Digital
Codec ID : A_AC3
Duration : 57 min 7 s
Bit rate mode : Constant
Bit rate : 640 kb/s
Channel(s) : 6 channels
Channel layout : L R C LFE Ls Rs
Sampling rate : 48.0 kHz
Frame rate : 31.250 FPS (1536 SPF)
Bit depth : 16 bits
Compression mode : Lossy
Stream size : 261 MiB (13%)
Title : Original
Language : English
Service kind : Complete Main
Default : No
Forced : No

Text
ID : 4
Format : UTF-8
Codec ID : S_TEXT/UTF8
Codec ID/Info : UTF-8 Plain Text
Duration : 53 min 57 s
Bit rate : 43 b/s
Count of elements : 651
Stream size : 17.3 KiB (0%)
Language : English
Default : No
Forced : No

Menu
00:00:00.000 : en:1.
00:12:15.000 : en:2.
00:19:54.000 : en:3.
00:29:02.000 : en:4.
00:38:33.000 : en:5.
00:50:12.000 : en:6.
Скріншоти:



Запис/зведення: sergiyko


 Трекер:    Зареєстрований   

Завантажити / скачати мультфільм українською



відео для новачків



 Зареєстрований:   2019-01-04 11:51
 Розмір:   1.96 GB 
 Оцінка мультфільму:   7.7/10 (Голосів: 7)
   
Ваш часовий пояс: GMT + 2 Години

Нова тема   Відповісти