Том і Джеррі: Гігантська пригода / Tom and Jerry's Giant Adventure (2013) 1080p Ukr/Eng | Sub End

Нові коментарі

Нова тема   Відповісти
Автор Повідомлення
sergiyko.5 
Забанено
Забанено


З нами з: 25.02.16
Востаннє: 29.10.20
Повідомлень: 3648

2019-01-04 11:44  


Том і Джеррі: Гігантська пригода / Tom and Jerry's Giant Adventure (2013) 1080p Ukr/Eng | Sub End

Том і Джеррі: Гігантська пригода / Tom and Jerry's Giant Adventure (2013) 1080p Ukr/Eng | Sub End

Жанр: пригоди, комедія
Країна: США
Режисер: Спайк Брандт(Spike Brandt), Тоні Червоне(Tony Cervone)
Ролі озвучували: Келлі Стейблз, Віккі Льюіс, Джим Каммінгс, Лорейн Ньюмен, Вуейн Найт

Опис: У цьому мультфільмі Том і Джеррі – одні з останніх звіряток, що залишилися в парку розваг Місто казок. Хлопчик Джек хоче врятувати парк від рук жадібного мільярдера і разом зі своїми вірними друзями – котом і мишеням – вирішує продати свого бичка за жменю чарівних бобів. Забравшись за допомогою гігантського бобового стебла за хмари, вони потрапляють у чарівну країну.



Тривалість: 00:57:07
Якість:

Відео: кодек: розмір кадру: 1920 x 1080 бітрейт: 8000 кб/с
Аудіо #1: мова: українська переклад: багатоголосий закадровий кодек: 2.0 бітрейт: 192 кб/с
Озвучення:
Аудіо #2: мова: англійська переклад: оригінал кодек: 5.1 бітрейт: 1510 кб/с
Субтитри: мова: англійська тип: програмні (м’які) формат: *.srt
Інформація про файл:
General
Unique ID : 294093188787244961449616718629621252658 (0xDD4049B204427F555DCFCFF875F4C232)
Complete name : G:\Torrents2\MULT\Tom and Jerry's.Giant Adventure.2013.1080p..Ukr.Eng.
Format :
Format version : Version 4
File size : 3.87 GiB
Duration : 57 min 7 s
Overall bit rate : 9 705 kb/s
Movie name : Tom and Jerry's. Giant Adventure 2013 1080p by sergiyko
Encoded date : UTC 2019-01-04 09:39:45
Writing application : v29.0.0 ('Like It Or Not') 64-bit
Writing library : libebml v1.3.6 + v1.4.9
Cover : Yes
Attachments : cover.jpg

Video
ID : 1
Format : AVC
Format/Info : Advanced Video Codec
Format profile : [email protected]
Format settings : CABAC / 4 Ref Frames
Format settings, CABAC : Yes
Format settings, ReFrames : 4 frames
Codec ID : V_MPEG4/ISO/AVC
Duration : 57 min 6 s
Bit rate : 8 000 kb/s
Width : 1 920 pixels
Height : 1 080 pixels
Display aspect ratio : 16:9
Frame rate mode : Constant
Frame rate : 23.976 (24000/1001) FPS
Color space : YUV
Chroma subsampling : 4:2:0
Bit depth : 8 bits
Scan type : Progressive
Bits/(Pixel*Frame) : 0.161
Stream size : 3.19 GiB (82%)
Title : Tom and Jerry's.Giant Adventure.2013
Writing library : core 135 r2345 f0c1c53
Encoding settings : cabac=1 / ref=4 / deblock=1:-1:-1 / analyse=0x3:0x133 / me=tesa / subme=11 / psy=1 / psy_rd=0.75:0.00 / mixed_ref=1 / me_range=32 / chroma_me=1 / trellis=2 / 8x8dct=1 / cqm=0 / deadzone=21,11 / fast_pskip=1 / chroma_qp_offset=-2 / threads=12 / lookahead_threads=2 / sliced_threads=0 / nr=0 / decimate=1 / interlaced=0 / bluray_compat=0 / constrained_intra=0 / bframes=8 / b_pyramid=2 / b_adapt=2 / b_bias=0 / direct=3 / weightb=1 / open_gop=0 / weightp=2 / keyint=240 / keyint_min=23 / scenecut=40 / intra_refresh=0 / rc=2pass / mbtree=0 / bitrate=8000 / ratetol=1.0 / qcomp=0.60 / qpmin=10 / qpmax=69 / qpstep=4 / cplxblur=20.0 / qblur=0.5 / ip_ratio=1.40 / pb_ratio=1.30 / aq=2:0.85
Language : English
Default : Yes
Forced : No

Audio #1
ID : 2
Format : AC-3
Format/Info : Audio Coding 3
Commercial name : Dolby Digital
Codec ID : A_AC3
Duration : 57 min 7 s
Bit rate mode : Constant
Bit rate : 192 kb/s
Channel(s) : 2 channels
Channel layout : L R
Sampling rate : 48.0 kHz
Frame rate : 31.250 FPS (1536 SPF)
Bit depth : 16 bits
Compression mode : Lossy
Stream size : 78.4 MiB (2%)
Title : MOV | Новий канал
Language : Ukrainian
Service kind : Complete Main
Default : Yes
Forced : Yes

Audio #2
ID : 3
Format :
Format/Info : Digital Theater Systems
Codec ID : A_DTS
Duration : 57 min 7 s
Bit rate mode : Constant
Bit rate : 1 509 kb/s
Channel(s) : 6 channels
Channel layout : C L R Ls Rs LFE
Sampling rate : 48.0 kHz
Frame rate : 93.750 FPS (512 SPF)
Bit depth : 24 bits
Compression mode : Lossy
Stream size : 617 MiB (16%)
Title : Original
Language : English
Default : No
Forced : No

Text
ID : 4
Format : UTF-8
Codec ID : S_TEXT/UTF8
Codec ID/Info : UTF-8 Plain Text
Duration : 56 min 43 s
Bit rate : 48 b/s
Count of elements : 715
Stream size : 20.2 KiB (0%)
Language : English
Default : No
Forced : No

Menu
00:00:00.000 : en:00:00:00.000
00:12:17.946 : en:00:12:17.946
00:19:56.278 : en:00:19:56.278
00:29:04.743 : en:00:29:04.743
00:38:35.355 : en:00:38:35.355
00:50:14.637 : en:00:50:14.637
Скріншоти:



Запис/зведення: sergiyko


 Трекер:    Зареєстрований   

Завантажити / скачати мультфільм українською



відео для новачків



 Зареєстрований:   2019-01-04 11:44
 Розмір:   3.87 GB 
 Оцінка мультфільму:   10/10 (Голосів: 3)
   
Ваш часовий пояс: GMT + 2 Години

Нова тема   Відповісти