Секрети домашніх тварин / The Secret Life of Pets (2016) 1080p H.265 Ukr/Eng | Sub Ukr/Eng

Нові коментарі

Нова тема   Відповісти
Автор Повідомлення
Anonymous 







2019-01-04 10:18  
Секрети домашніх тварин / The Secret Life of Pets (2016) 1080p H.265 Ukr/Eng | Sub Ukr/Eng

Секрети домашніх тварин / The Secret Life of Pets (2016) 1080p H.265 Ukr/Eng | Sub Ukr/Eng


Жанр: анімація, комедія, пригодницький, сімейний
Країна: США, Японія
Кінокомпанія: Universal Pictures, Illumination Entertainment
Режисер: Кріс Рено / Chris Renaud, Ярроу Чейні / Yarrow Cheney
Актори: Луї Сі Кей / Louis C.K., Ерік Стоунстріт / Eric Stonestreet, Кевін Гарт / Kevin Hart, Дженні Слейт / Jenny Slate, Еллі Кемпер / Ellie Kemper, Альберт Брукс / Albert Brooks, Лейк Белл / Lake Bell, Ганнібал Баресс / Hannibal Buress, Кріс Рено / Chris Renaud, Стів Куґан / Steve Coogan та інші

Сюжет:
Улюбленець своєї власниці пес Макс жив щасливо у квартирі на Мангеттені. Він грав і спілкувався з сусідськими звірятами. Але все життя Макса перекинулося догори дригом, коли його хазяйка вирішила взяти ще одного пса - Дюка. Парочка ніяк не могла помиритися, проте їм довелося залишити свої сварки позаду через важливіші причини. Кролик на ім'я Сніжок збирає армію загублених домашніх тварин, щоб помститися своїм двоногим кривдникам.

Тривалість: 01:26:27
Якість:

Відео:
кодек: H.265 (HEVC)
розмір кадру: 1920 x 1036
бітрейт: 5 900 кб/с
бітова глибина: 10 біт

Увага! Перед завантаженням переконайтесь, що ваш пристрій відтворення (та/або ПЗ) підтримує H.265 (HEVC)

Аудіо # 1:
мова: українська
переклад: професійний дубльований | студія LeDoyen
кодек: AC-3 5.1
бітрейт: 640 кб/с
Інформація про дубляж
Фільм дубльовано студією LeDoyen на замовлення B&H Film Distribution
Переклад: Сергій Ковальчук
Режисер дубляжу: Ганна Пащенко
Звукорежисер: Микита Будаш
Звукорежисер перезапису: Олег Кульчицький
Координатор проекту: Аліна Гаєвська
Ролі дублювали: Сергій Притула, Андрій Федінчик, Сергій Солопай, Олеся Жураковська, Павло Шилько (dj Паша), Марина Андрощук, Валерій Легін, Євген Малуха, Назар Задніпровський та інші
Мікс дубляжної версії здійснено на студії LeDoyen
Аудіо # 2:
мова: англійська
переклад: оригінал
кодек: AC-3 5.1
бітрейт: 640 кб/с

Субтитри # 1-2: (Forced, Full)
мова: українська
тип: програмні (м'які)
формат: *.srt

Субтитри # 3-5: (Full, SDH, SDH-Colored)
мова: англійська
тип: програмні (м'які)
формат: *.srt


Info
Код:
General
Unique ID                                : 1349298497300551359809099008909694468 (0x103DD8D5809F3283792852C81CAD604)
Complete name                            : The Secret Life of Pets (2016) 1080p H.265 [UKR_ENG] [Hurtom].
Format                                   :
Format version                           : Version 4
File size                                : 4.34 GiB
Duration                                 : 1 h 28 min
Overall bit rate                         : 7 031 kb/s
Movie name                               : Секрети домашніх тварин / The Secret Life of Pets (2016)
Encoded date                             : UTC 2019-11-26 18:36:06
Writing application                      : v20.0.0 ('I Am The Sun') 64-bit
Writing library                          : libebml v1.3.5 + v1.4.8
Cover                                    : Yes
Attachments                              : cover.jpg

Video
ID                                       : 1
Format                                   : HEVC
Format/Info                              : High Efficiency Video Coding
Format profile                           : Main [email protected]@High
Codec ID                                 : V_MPEGH/ISO/HEVC
Duration                                 : 1 h 26 min
Bit rate                                 : 5 900 kb/s
Width                                    : 1 920 pixels
Height                                   : 1 036 pixels
Display aspect ratio                     : 1.85:1
Frame rate mode                          : Constant
Frame rate                               : 23.976 (24000/1001) FPS
Color space                              : YUV
Chroma subsampling                       : 4:2:0
Bit depth                                : 10 bits
Bits/(Pixel*Frame)                       : 0.124
Stream size                              : 3.56 GiB (82%)
Title                                    : Секрети домашніх тварин / The Secret Life of Pets (2016)
Writing library                          : x265 3.2+5-354901970679:[Windows][clang 8.0.1][64 bit] 10bit
Encoding settings                        : cpuid=1111039 / frame-threads=9 / numa-pools=8 / wpp / no-pmode / no-pme / no-psnr / no-ssim / log-level=3 / input-csp=1 / input-res=1920x1036 / interlace=0 / total-frames=0 / level-idc=41 / high-tier=1 / uhd-bd=0 / ref=5 / allow-non-conformance / no-repeat-headers / annexb / aud / no-hrd / info / hash=0 / no-temporal-layers / open-gop / min-keyint=23 / keyint=240 / gop-lookahead=0 / bframes=12 / b-adapt=2 / b-pyramid / bframe-bias=0 / rc-lookahead=60 / lookahead-slices=4 / scenecut=40 / radl=0 / no-splice / no-intra-refresh / ctu=32 / min-cu-size=8 / rect / amp / max-tu-size=32 / tu-inter-depth=4 / tu-intra-depth=4 / limit-tu=0 / rdoq-level=2 / dynamic-rd=0.00 / no-ssim-rd / signhide / no-tskip / nr-intra=0 / nr-inter=0 / no-constrained-intra / no-strong-intra-smoothing / max-merge=5 / limit-refs=3 / limit-modes / me=3 / subme=7 / merange=57 / temporal-mvp / no-frame-dup / no-hme / weightp / weightb / no-analyze-src-pics / deblock=-3:-3 / no-sao / no-sao-non-deblock / rd=6 / selective-sao=0 / no-early-skip / no-rskip / no-fast-intra / no-tskip-fast / no-cu-lossless / no-b-intra / no-splitrd-skip / rdpenalty=0 / psy-rd=2.00 / psy-rdoq=1.00 / no-rd-refine / no-lossless / cbqpoffs=0 / crqpoffs=0 / rc=abr / bitrate=5908 / qcomp=0.70 / qpstep=4 / stats-write=0 / stats-read=1 / cplxblur=20.0 / qblur=0.5 / vbv-maxrate=50000 / vbv-bufsize=50000 / vbv-init=0.9 / ipratio=1.40 / pbratio=1.30 / aq-mode=2 / aq-strength=1.00 / no-cutree / zone-count=0 / no-strict-cbr / qg-size=32 / no-rc-grain / qpmax=69 / qpmin=0 / no-const-vbv / sar=1 / overscan=0 / videoformat=5 / range=0 / colorprim=2 / transfer=2 / colormatrix=2 / chromaloc=0 / display-window=0 / cll=0,0 / min-luma=0 / max-luma=1023 / log2-max-poc-lsb=8 / vui-timing-info / vui-hrd-info / slices=1 / no-opt-qp-pps / no-opt-ref-list-length-pps / no-multi-pass-opt-rps / scenecut-bias=0.05 / no-opt-cu-delta-qp / no-aq-motion / no-hdr / no-hdr-opt / no-dhdr10-opt / no-idr-recovery-sei / analysis-reuse-level=5 / scale-factor=0 / refine-intra=0 / refine-inter=0 / refine-mv=1 / refine-ctu-distortion=0 / no-limit-sao / ctu-info=0 / no-lowpass-dct / refine-analysis-type=0 / copy-pic=1 / max-ausize-factor=1.0 / no-dynamic-refine / no-single-sei / hevc-aq / no-svt / no-field / qp-adaptation-range=2.00
Language                                 : English
Default                                  : Yes
Forced                                   : No
Color range                              : Limited

Audio #1
ID                                       : 2
Format                                   : AC-3
Format/Info                              : Audio Coding 3
Commercial name                          : Dolby Digital
Codec ID                                 : A_AC3
Duration                                 : 1 h 26 min
Bit rate mode                            : Constant
Bit rate                                 : 640 kb/s
Channel(s)                               : 6 channels
Channel layout                           : L R C LFE Ls Rs
Sampling rate                            : 48.0 kHz
Frame rate                               : 31.250 FPS (1536 SPF)
Bit depth                                : 16 bits
Compression mode                         : Lossy
Stream size                              : 396 MiB (9%)
Title                                    : / 5.1 Ch / 640 kbps / ПД / Blu-Ray
Language                                 : Ukrainian
Service kind                             : Complete Main
Default                                  : Yes
Forced                                   : Yes

Audio #2
ID                                       : 3
Format                                   : AC-3
Format/Info                              : Audio Coding 3
Commercial name                          : Dolby Digital
Codec ID                                 : A_AC3
Duration                                 : 1 h 26 min
Bit rate mode                            : Constant
Bit rate                                 : 640 kb/s
Channel(s)                               : 6 channels
Channel layout                           : L R C LFE Ls Rs
Sampling rate                            : 48.0 kHz
Frame rate                               : 31.250 FPS (1536 SPF)
Bit depth                                : 16 bits
Compression mode                         : Lossy
Stream size                              : 396 MiB (9%)
Title                                    : / 5.1 Ch / 640 kbps / Original
Language                                 : English
Service kind                             : Complete Main
Default                                  : No
Forced                                   : No

Text #1
ID                                       : 4
Format                                   : UTF-8
Codec ID                                 : S_TEXT/UTF8
Codec ID/Info                            : UTF-8 Plain Text
Duration                                 : 1 h 24 min
Bit rate                                 : 1 b/s
Count of elements                        : 26
Stream size                              : 778 Bytes (0%)
Title                                    : Forced
Language                                 : Ukrainian
Default                                  : Yes
Forced                                   : Yes

Text #2
ID                                       : 5
Format                                   : UTF-8
Codec ID                                 : S_TEXT/UTF8
Codec ID/Info                            : UTF-8 Plain Text
Duration                                 : 1 h 24 min
Bit rate                                 : 65 b/s
Count of elements                        : 1259
Stream size                              : 40.9 KiB (0%)
Title                                    : Full
Language                                 : Ukrainian
Default                                  : No
Forced                                   : No

Text #3
ID                                       : 6
Format                                   : UTF-8
Codec ID                                 : S_TEXT/UTF8
Codec ID/Info                            : UTF-8 Plain Text
Duration                                 : 1 h 25 min
Bit rate                                 : 50 b/s
Count of elements                        : 1314
Stream size                              : 31.5 KiB (0%)
Title                                    : Full
Language                                 : English
Default                                  : No
Forced                                   : No

Text #4
ID                                       : 7
Format                                   : UTF-8
Codec ID                                 : S_TEXT/UTF8
Codec ID/Info                            : UTF-8 Plain Text
Duration                                 : 1 h 26 min
Bit rate                                 : 61 b/s
Count of elements                        : 1685
Stream size                              : 39.0 KiB (0%)
Title                                    : SDH
Language                                 : English
Default                                  : No
Forced                                   : No

Text #5
ID                                       : 8
Format                                   : UTF-8
Codec ID                                 : S_TEXT/UTF8
Codec ID/Info                            : UTF-8 Plain Text
Duration                                 : 1 h 27 min
Bit rate                                 : 90 b/s
Count of elements                        : 1695
Stream size                              : 57.9 KiB (0%)
Title                                    : SDH-Colored
Language                                 : English
Default                                  : No
Forced                                   : No

Menu
00:00:00.000                             : en:00:00:00.000
00:05:05.847                             : en:00:05:05.847
00:09:24.063                             : en:00:09:24.063
00:13:18.840                             : en:00:13:18.840
00:18:03.666                             : en:00:18:03.666
00:22:14.458                             : en:00:22:14.458
00:28:51.855                             : en:00:28:51.855
00:32:54.848                             : en:00:32:54.848
00:36:55.839                             : en:00:36:55.839
00:42:27.295                             : en:00:42:27.295
00:44:46.767                             : en:00:44:46.767
00:50:21.227                             : en:00:50:21.227
00:54:45.407                             : en:00:54:45.407
00:59:33.987                             : en:00:59:33.987
01:02:36.544                             : en:01:02:36.544
01:07:12.362                             : en:01:07:12.362
01:13:06.841                             : en:01:13:06.841
01:16:04.602                             : en:01:16:04.602
01:18:48.057                             : en:01:18:48.057
01:19:58.836                             : en:01:19:58.836
Світлини




Джерело: &
Особиста оцінка: 10 - без зайвих вагань рекомендую всім!


 Трекер:    Зареєстрований   

Завантажити / скачати мультфільм українською



відео для новачків



 Зареєстрований:   2019-11-27 13:08
 Розмір:   4.34 GB 
 Оцінка мультфільму:   9.7/10 (Голосів: 50)
   
aleks678k 
Новенький


З нами з: 15.05.19
Востаннє: 07.02.21
Повідомлень: 3

2019-06-03 21:25  
А що з файлом?До цього дня вс1 мфайли на телев1зор1 робили-цей не працюе.Роблю зараз конвертац1ю!
igor911 
Модератор відео


З нами з: 18.01.08
Востаннє: 25.02.21
Повідомлень: 15543

2019-06-03 21:34  
aleks678k написано:
А що з файлом?

Це тест на уважність
Цитата:
Увага! Перед завантаженням переконайтесь, що ваш пристрій відтворення (та/або ПЗ) підтримує H.265 (HEVC)

aleks678k написано:
Роблю зараз конвертац1ю!

навіщо? хіба під спойлером "Інші релізи" не знайшлось прийнятного?

aleks678k 
Новенький


З нами з: 15.05.19
Востаннє: 07.02.21
Повідомлень: 3

2019-06-03 21:44  
та вчора вечером скачав-а т1льки зараз побачив H.265 (HEVC),вибачаюсь-качаю другий рел1з,якраз 1 побачу що буде швидше-конвертац1я чи закачування

Додано через 2 хвилини 48 секунд:

До реч1 на компютер1 працюе

Anonymous 







2019-06-03 21:55  
aleks678k
Думаю, що закачування буде швидшим)

aleks678k 
Новенький


З нами з: 15.05.19
Востаннє: 07.02.21
Повідомлень: 3

2019-06-03 22:34  
Дякую!Скачав!
JanusK 
Новенький


З нами з: 15.01.17
Востаннє: 09.01.21
Повідомлень: 24

2019-07-15 14:45  
Щиро дякую за реліз, бо в мене телек ураще відтворює H.265 (HEVC).
Буду дуже вдячний за реліз "The Boss Baby" у H.265 (HEVC)

Anonymous 







2019-07-29 19:51  
JanusK
Ось - https://toloka.to/t102674

Grey_ua 
Новенький


З нами з: 26.11.16
Востаннє: 21.02.21
Повідомлень: 9

2019-09-14 20:36  
ДУже крутий мульт. Дякую за реліз.
Anonymous 







2019-11-27 13:09  
Якісніший відеоряд.
Jatx_11 
Відео Гуртом - фільмокрай
Відео Гуртом - фільмокрай


З нами з: 20.04.11
Востаннє: 25.02.21
Повідомлень: 1082

2019-12-27 13:04  
Чому тут золото?
O_omarella! 
Поважний учасник


З нами з: 14.06.13
Востаннє: 21.02.21
Повідомлень: 199

2020-01-26 20:28  
Мультик бомба!
Ваш часовий пояс: GMT + 2 Години

Нова тема   Відповісти