Лютер (Сезон 4) / Luther (Season 4) (2015)

Нові коментарі

Нова тема   Відповісти
Автор Повідомлення
DniproFilm 
VIP


З нами з: 10.10.18
Востаннє: 17.02.19
Повідомлень: 288

2019-01-03 20:25  
Лютер (Сезон 4) / Luther (Season 4) (2015)

Лютер (Сезон 4) / Luther (Season 4) (2015)


Жанр: детектив, драма, кримінальний, трилер
Країна: Велика Британія



Кінокомпанія / телеканал: BBC Studios, BBC Television Centre
Режисер: Ніл Кросс
Актори: Ідріс Ельба, Рут Вілсон, Воррен Браун, Дермот Краулі, Майкл Смайлі, Ніккі Амука-Берд, Сієнна Гіллорі, Стівен Макінтош, Індіра Варма, Девід О'Хара та інші

Сюжет:
Відмінний кримінально-драматичний трилер про видатного детектива Джона Лютера, який готовий на все заради досягнення мети.
Головний герой - детектив департаменту поліції Джон Лютер. В нього не складаються відносини з родиною, але завдяки цьому є час на розкриття кривавих злочинів. І в своєму ремеслі він один з найкращих. Успішність Лютера полягає у його нестандартних методах, які він використовує для викриття серійних вбивць. Ці методи не завжди законні, але завжди ефективні…


Тривалість: 1 серія: ~ 60 хв. (цілком серій: 2)
Перелік серій

1. Episode 4.1
2. Episode 4.2
Якість:
Відео:
кодек:
розмір кадру: 720x400
бітрейт: ~1800 кб/с

Аудіо # 1:
мова: українська
переклад: багатоголосий закадровий
кодек: 5.1
бітрейт: 384 кб/с

Джерело озвучення:
DniproFilm
Info

Video
ID : 0
Format : MPEG-4 Visual
Format profile : Advanced [email protected]
Format settings : BVOP2
Format settings, BVOP : 2
Format settings, QPel : No
Format settings, GMC : No warppoints
Format settings, Matrix : Default (H.263)
Muxing mode : Packed bitstream
Codec ID :
Codec ID/Hint :
Duration : 58 min 55 s
Bit rate : 1 777 kb/s
Width : 720 pixels
Height : 400 pixels
Display aspect ratio : 16:9
Frame rate : 25.000 FPS
Color space : YUV
Chroma subsampling : 4:2:0
Bit depth : 8 bits
Scan type : Progressive
Compression mode : Lossy
Bits/(Pixel*Frame) : 0.247
Stream size : 749 MiB (82%)
Writing library : 67

Audio
ID : 1
Format : AC-3
Format/Info : Audio Coding 3
Commercial name : Dolby Digital
Codec ID : 2000
Duration : 58 min 55 s
Bit rate mode : Constant
Bit rate : 384 kb/s
Channel(s) : 6 channels
Channel positions : Front: L C R, Side: L R, LFE
Sampling rate : 48.0 kHz
Frame rate : 31.250 FPS (1536 SPF)
Bit depth : 16 bits
Compression mode : Lossy
Stream size : 162 MiB (18%)
Alignment : Aligned on interleaves
Interleave, duration : 40 ms (1.00 video frame)
Interleave, preload duratio : 512 ms
Service kind : Complete Main
Скріншоти


Увага, присутня відео та аудіореклама.


Джерело: DniproFilm



Авторський реліз (завантажувати можна без реєстрації)
 Трекер:    Зареєстрований   

Завантажити / скачати серіал українською



відео для новачків



 Зареєстрований:   2019-01-03 20:25
 Розмір:   1.8 GB 
 Оцінка серіалу:   8.9/10 (Голосів: 8)
   
MAECTP0 
Новенький


З нами з: 11.04.09
Востаннє: 18.02.19
Повідомлень: 15

2019-01-04 11:55  
Цитата:
(цілком серій: 2)

Це весь сезон?

igor911 
Відео Гуртом
Відео Гуртом


З нами з: 18.01.08
Востаннє: 18.02.19
Повідомлень: 12034

2019-01-04 12:14  
MAECTP0 написано:
Це весь сезон?

так: https://www.imdb.com/title/tt1474684/episodes?season=4

exwest1 
Частий відвідувач


З нами з: 07.01.11
Востаннє: 17.02.19
Повідомлень: 25

2019-01-05 11:32  
igor911
Вже наступний сезон вийшов, чекати?

ced 
Свій


З нами з: 11.02.17
Востаннє: 18.02.19
Повідомлень: 87

2019-01-05 12:09  
exwest1 написано:
Вже наступний сезон вийшов, чекати?

Цитую з pеліза в 1080p
DniproFilm написано:
П'ятий сезон теж буде.

exwest1 
Частий відвідувач


З нами з: 07.01.11
Востаннє: 17.02.19
Повідомлень: 25

2019-01-05 14:42  
ced
дякс, круто

Петров Микола 
VIP


З нами з: 15.08.14
Востаннє: 18.02.19
Повідомлень: 474

2019-01-09 15:50  
Круто, що голос Лютера зберегли, дякую)
Ваш часовий пояс: GMT + 2 Години

Нова тема   Відповісти